<?xml version="1.0" standalone="no"?>
<!DOCTYPE svg PUBLIC "-//W3C//DTD SVG 1.1//EN" "http://www.w3.org/Graphics/SVG/1.1/DTD/svg11.dtd" >
<svg xmlns="http://www.w3.org/2000/svg" xmlns:xlink="http://www.w3.org/1999/xlink" version="1.1">
<metadata></metadata>
<defs>
<font id="circularregular" horiz-adv-x="0" >
<font-face units-per-em="2048" ascent="1638" descent="-410" />
<missing-glyph horiz-adv-x="690" />
<glyph unicode="&#x3b;&#x3b;For&#x20;Education&#x20;Used&#x20;Only&#x3b;&#x3b;" horiz-adv-x="1338" d="M69 600q0 124 47 233.5t128.5 191t191 128.5t233.5 47t233.5 -47t191 -128.5t128.5 -191t47 -233.5t-47 -233.5t-128.5 -191t-191 -128.5t-233.5 -47t-233.5 47t-191 128.5t-128.5 191t-47 233.5zM169 600q0 -69 18 -133t50.5 -119.5t78 -101t101 -78t119.5 -50.5 t133 -18t133 18t119.5 50.5t101 78t78 101t50.5 119.5t18 133q0 103 -39.5 194.5t-107 159t-159 107t-194.5 39.5q-69 0 -133 -18t-119.5 -50.5t-101 -78t-78 -101t-50.5 -119.5t-18 -133zM350 520v160q0 62 23.5 117t64 95.5t95.5 64t117 23.5q41 0 75.5 -4.5t64.5 -12.5 t57 -19t53 -24v-107l-8 -4q-62 38 -118 54.5t-124 16.5q-42 0 -78.5 -15.5t-63.5 -42.5t-42.5 -63.5t-15.5 -78.5v-160q0 -42 15.5 -78.5t42.5 -63.5t63.5 -42.5t78.5 -15.5q68 0 124 16.5t118 54.5l8 -4v-107q-26 -13 -53 -24t-57 -19t-64.5 -12.5t-75.5 -4.5 q-62 0 -117 23.5t-95.5 64t-64 95.5t-23.5 117z" />
<glyph unicode="&#x3b;&#x3b;Registered&#x3b;&#x3b;" horiz-adv-x="1338" d="M69 600q0 124 47 233.5t128.5 191t191 128.5t233.5 47t233.5 -47t191 -128.5t128.5 -191t47 -233.5t-47 -233.5t-128.5 -191t-191 -128.5t-233.5 -47t-233.5 47t-191 128.5t-128.5 191t-47 233.5zM169 600q0 -69 18 -133t50.5 -119.5t78 -101t101 -78t119.5 -50.5 t133 -18t133 18t119.5 50.5t101 78t78 101t50.5 119.5t18 133q0 103 -39.5 194.5t-107 159t-159 107t-194.5 39.5q-69 0 -133 -18t-119.5 -50.5t-101 -78t-78 -101t-50.5 -119.5t-18 -133zM420 260v590q0 31 12 58.5t32 47.5t47.5 32t58.5 12h150q46 0 87 -17.5t72 -48.5 t48.5 -72t17.5 -87q0 -58 -22.5 -106.5t-82.5 -78.5q49 -30 64.5 -73t15.5 -92v-165l-10 -10h-80l-10 10v165q0 25 -7 47.5t-20.5 40t-32 27.5t-40.5 10h-200v-290l-10 -10h-80zM520 650h200q26 0 48.5 10t39.5 27t27 39.5t10 48.5t-10 48.5t-27 39.5t-39.5 27t-48.5 10 h-150q-21 0 -35.5 -14.5t-14.5 -35.5v-200z" />
<glyph unicode="&#x3b;&#x3b;Trademark&#x3b;&#x3b;" horiz-adv-x="810" d="M32 1146v48l6 6h288l6 -6v-48l-6 -6h-114v-234l-6 -6h-48l-6 6v234h-114zM368 906v204q0 38 26 64t64 26t59.5 -27t30.5 -63l18 -71l18 71q9 36 30.5 63t59.5 27t64 -26t26 -64v-204l-6 -6h-48l-6 6v204q0 12 -9 21t-21 9t-19.5 -9.5t-10.5 -20.5l-48 -147 q-3 -8 -12.5 -11t-17.5 -3t-17.5 3t-12.5 11l-48 147q-3 11 -10.5 20.5t-19.5 9.5t-21 -9t-9 -21v-204l-6 -6h-48z" />
<glyph unicode="&#x3b;&#x3b;Multiply&#x3b;&#x3b;" horiz-adv-x="890" d="M45 127l336 376l-336 376l10 10l99 11l291 -326l291 326l99 -11l10 -10l-336 -376l336 -376l-10 -10l-94 -17l-296 331l-296 -331l-94 17z" />
<glyph unicode="&#x3b;&#x3b;Divide&#x3b;&#x3b;" horiz-adv-x="800" d="M50 410v80l10 10h680l10 -10v-80l-10 -10h-680zM300 200q0 42 29 71t71 29t71 -29t29 -71t-29 -71t-71 -29t-71 29t-29 71zM300 700q0 42 29 71t71 29t71 -29t29 -71t-29 -71t-71 -29t-71 29t-29 71z" />
<glyph unicode="&#x2018;&#x2018;" horiz-adv-x="620" d="M50 850v75q0 46 17.5 87t48.5 72t71.5 48.5t87.5 17.5l10 -10v-80l-10 -10q-45 0 -79.5 -28.5t-42.5 -71.5q41 -1 69 -30t28 -70q0 -42 -29 -71t-71 -29t-71 29t-29 71zM340 850v75q0 46 17.5 87t48.5 72t71.5 48.5t87.5 17.5l10 -10v-80l-10 -10q-45 0 -79.5 -28.5 t-42.5 -71.5q41 -1 69 -30t28 -70q0 -42 -29 -71t-71 -29t-71 29t-29 71z" />
<glyph unicode="&#x2019;&#x2019;" horiz-adv-x="620" d="M45 760v80l10 10q45 0 79.5 28.5t42.5 71.5q-41 1 -69 30t-28 70q0 42 29 71t71 29t71 -29t29 -71v-75q0 -47 -17.5 -87.5t-48.5 -71.5t-72 -48.5t-87 -17.5zM335 760v80l10 10q45 0 79.5 28.5t42.5 71.5q-41 1 -69 30t-28 70q0 42 29 71t71 29t71 -29t29 -71v-75 q0 -47 -17.5 -87.5t-48.5 -71.5t-72 -48.5t-87 -17.5z" />
<glyph unicode="&#xe24;&#xe32;" horiz-adv-x="1219" d="M70 674q36 95 120.5 150.5t209.5 55.5q61 0 114.5 -23t94.5 -62q41 39 95 62t115 23q62 0 117 -23.5t95.5 -64t64 -95.5t23.5 -117v-870l-10 -10h-80l-10 10v870q0 42 -15.5 78.5t-42.5 63.5t-63.5 42.5t-78.5 15.5q-45 0 -83.5 -18t-66.5 -50q14 -30 22.5 -63.5 t8.5 -68.5v-870l-10 -10h-80l-10 10v870q0 42 -15.5 78.5t-42.5 63.5t-63.5 42.5t-78.5 15.5q-83 0 -134.5 -24.5t-85.5 -81.5q7 -19 11.5 -41t6 -45t2 -46t0.5 -42v-350q0 -21 14.5 -35.5t35.5 -14.5q17 0 31.5 1.5t26.5 6.5h10v-97q-14 -5 -31 -8t-37 -3q-31 0 -58.5 12 t-47.5 32t-32 47.5t-12 58.5v350q0 99 -30 174z" />
<glyph unicode="&#xe26;&#xe32;" horiz-adv-x="1229" d="M43 4v97h10l7 -1q21 0 35.5 14.5t14.5 35.5v350q0 99 -30 174q36 95 120.5 150.5t209.5 55.5q61 0 114.5 -23t94.5 -62q41 39 95 62t115 23q62 0 117 -23.5t95.5 -64t64 -95.5t23.5 -117v-870l-10 -10h-80l-10 10v870q0 42 -15.5 78.5t-42.5 63.5t-63.5 42.5t-78.5 15.5 q-45 0 -83.5 -18t-66.5 -50q14 -30 22.5 -63.5t8.5 -68.5v-870l-10 -10h-80l-10 10v870q0 42 -15.5 78.5t-42.5 63.5t-63.5 42.5t-78.5 15.5q-83 0 -134.5 -24.5t-85.5 -81.5q7 -19 11.5 -41t6 -45t2 -46t0.5 -42v-350q0 -31 -12 -58.5t-32 -47.5t-47.5 -32t-58.5 -12 q-7 0 -17 4z" />
<glyph unicode="&#xd;" horiz-adv-x="579" />
<glyph unicode=" "  horiz-adv-x="690" />
<glyph unicode="&#x09;" horiz-adv-x="690" />
<glyph unicode="&#xa0;" horiz-adv-x="690" />
<glyph unicode="!" horiz-adv-x="300" d="M50 100q0 -42 29 -71t71 -29t71 29t29 71t-29 71t-71 29t-71 -29t-29 -71zM100 360v780l10 10h80l10 -10v-780l-10 -10h-80z" />
<glyph unicode="&#x22;" horiz-adv-x="500" d="M100 860v280l10 10h80l10 -10v-280l-10 -10h-80zM330 860v280l10 10h80l10 -10v-280l-10 -10h-80z" />
<glyph unicode="#" horiz-adv-x="1090" d="M46 410v80l10 10h248l44 200h-192l-10 10v80l10 10h214l76 340l10 10h80l10 -10l-76 -340h200l76 340l10 10h80l10 -10l-76 -340h266l10 -10v-80l-10 -10h-288l-44 -200h232l10 -10v-80l-10 -10h-254l-86 -390l-10 -10h-80l-10 10l86 390h-200l-86 -390l-10 -10h-80 l-10 10l86 390h-226zM404 500h200l44 200h-200z" />
<glyph unicode="$" horiz-adv-x="831" d="M50 850q0 62 23.5 117t64 95.5t95.5 64t117 23.5h20v140l10 10h80l10 -10v-145q59 -4 125 -10t117 -15v-98l-8 -4q-23 5 -52 9t-59.5 7.5t-62 6t-60.5 4.5v-397q61 -6 114.5 -34t93 -71t62 -99t22.5 -119t-22.5 -119t-62 -99.5t-93 -71.5t-114.5 -34v-141l-10 -10h-80 l-10 10v141q-30 1 -67.5 3t-78 5.5t-80.5 8.5t-74 12v98l8 4q33 -6 71.5 -11t77.5 -8.5t76 -6.5t67 -4v448h-20q-62 0 -117 23.5t-95.5 64t-64 95.5t-23.5 117zM150 850q0 -42 15.5 -78.5t42.5 -63.5t63.5 -42.5t78.5 -15.5h20v400h-20q-42 0 -78.5 -15.5t-63.5 -42.5 t-42.5 -63.5t-15.5 -78.5zM470 102q40 6 75.5 25.5t61 49.5t40.5 68t15 80t-15 80t-40.5 67.5t-61 49t-75.5 25.5v-445z" />
<glyph unicode="%" horiz-adv-x="1027" d="M64 950q0 41 16 77.5t43 63.5t63.5 43t77.5 16t77.5 -16t63.5 -43t43 -63.5t16 -77.5t-16 -77.5t-43 -63.5t-63.5 -43t-77.5 -16t-77.5 16t-63.5 43t-43 63.5t-16 77.5zM76 27l798 1123l99 -11l10 -10l-803 -1129l-94 17zM164 950q0 -42 29 -71t71 -29t71 29t29 71 t-29 71t-71 29t-71 -29t-29 -71zM564 200q0 41 16 77.5t43 63.5t63.5 43t77.5 16t77.5 -16t63.5 -43t43 -63.5t16 -77.5t-16 -77.5t-43 -63.5t-63.5 -43t-77.5 -16t-77.5 16t-63.5 43t-43 63.5t-16 77.5zM664 200q0 -42 29 -71t71 -29t71 29t29 71t-29 71t-71 29t-71 -29 t-29 -71z" />
<glyph unicode="&#x26;" horiz-adv-x="942" d="M76 350q0 49 14.5 95t40 85.5t61.5 71.5t79 55q-57 38 -88.5 94.5t-31.5 123.5q0 57 21.5 107t59 87.5t87.5 59t107 21.5q42 0 80 -11.5t70.5 -32.5t58 -50.5t41.5 -65.5l-78 -52l-10 4q-20 51 -62 79.5t-100 28.5q-36 0 -68 -13.5t-56 -37.5t-37.5 -56t-13.5 -68 t13.5 -68t37.5 -56t56 -37.5t68 -13.5h115l10 -10v-80l-10 -10h-115h-11q-50 -2 -93.5 -22.5t-76 -54.5t-51 -78.5t-18.5 -94.5q0 -52 19.5 -97.5t53.5 -79.5t79.5 -53.5t97.5 -19.5t97.5 19.5t79.5 53.5t53.5 79.5t19.5 97.5q0 44 -14 83t-39 71l18 96h230l10 -10v-80 l-10 -10h-129q34 -71 34 -150q0 -72 -27.5 -136t-75 -111.5t-111.5 -75t-136 -27.5t-136 27.5t-111.5 75t-75 111.5t-27.5 136z" />
<glyph unicode="'" horiz-adv-x="300" d="M100 1150q0 21 14.5 35.5t35.5 14.5t35.5 -14.5t14.5 -35.5q0 -19 -5 -52t-12.5 -69.5t-16.5 -71.5t-16 -57q-8 22 -16.5 57t-16 71.5t-12.5 69.5t-5 52z" />
<glyph unicode="(" horiz-adv-x="372" d="M62 550q0 125 7 222t20 169t31.5 121.5t40.5 80t47.5 44t53.5 13.5q20 0 37 -3t31 -8v-97h-10q-12 5 -26.5 6.5t-31.5 1.5q-21 0 -39 -38t-31.5 -109.5t-21.5 -173.5t-8 -229q0 -128 8 -229.5t21.5 -173t31.5 -109.5t39 -38q17 0 31.5 1.5t26.5 6.5h10v-97q-14 -5 -31 -8 t-37 -3q-41 0 -77.5 31t-63.5 106t-43 200t-16 313z" />
<glyph unicode=")" horiz-adv-x="372" d="M42 8h10q12 -5 26.5 -6.5t31.5 -1.5q21 0 39 38t31.5 109.5t21.5 173t8 229.5q0 127 -8 229t-21.5 173.5t-31.5 109.5t-39 38q-17 0 -31.5 -1.5t-26.5 -6.5h-10v97q14 5 31 8t37 3q27 0 53 -13.5t48 -44t40.5 -80t31.5 -121.5t20 -169t7 -222q0 -188 -16 -313t-43 -200 t-63.5 -106t-77.5 -31q-20 0 -37 3t-31 8v97z" />
<glyph unicode="*" horiz-adv-x="700" d="M76 988q-7 19 2 38q9 20 28 26.5t39 -1.5q17 -8 44.5 -26.5t57.5 -41t58 -45t45 -38.5q-24 3 -59 9.5t-71.5 15t-68.5 18t-49 17.5q-19 9 -26 28zM139 704q-2 20 12 37q12 14 37.5 36t54.5 45.5t58 44.5t49 33q-9 -22 -24.5 -54.5t-33 -65t-35 -61t-29.5 -43.5 q-14 -16 -34 -18t-36 12q-17 14 -19 34zM300 1150q0 21 14.5 35.5t35.5 14.5t35.5 -14.5t14.5 -35.5q0 -19 -5 -52t-12.5 -69.5t-16.5 -71.5t-16 -57q-8 22 -16.5 57t-16 71.5t-12.5 69.5t-5 52zM350 900q20 -12 49 -33t58 -44.5t54.5 -45.5t37.5 -36q14 -17 12 -37t-19 -34 q-16 -14 -36 -12t-34 18q-12 15 -29.5 43.5t-35 61t-33 65t-24.5 54.5zM350 900q17 16 45 38.5t58 45t57.5 41t44.5 26.5q20 8 39 1.5t28 -26.5q9 -19 2 -38t-26 -28q-17 -8 -49 -17.5t-68.5 -18t-71.5 -15t-59 -9.5z" />
<glyph unicode="+" horiz-adv-x="900" d="M50 460v80l10 10h340v340l10 10h80l10 -10v-340h340l10 -10v-80l-10 -10h-340v-340l-10 -10h-80l-10 10v340h-340z" />
<glyph unicode="," horiz-adv-x="350" d="M45 -110l10 10q45 0 79.5 28.5t42.5 71.5q-41 1 -69 30t-28 70q0 42 29 71t71 29t71 -29t29 -71v-75q0 -47 -17.5 -87.5t-48.5 -71.5t-72 -48.5t-87 -17.5l-10 10v80z" />
<glyph unicode="-" horiz-adv-x="700" d="M50 460v80l10 10h580l10 -10v-80l-10 -10h-580z" />
<glyph unicode="." horiz-adv-x="360" d="M80 100q0 42 29 71t71 29t71 -29t29 -71t-29 -71t-71 -29t-71 29t-29 71z" />
<glyph unicode="/" horiz-adv-x="849" d="M32 -73l675 1273l99 -11l10 -10l-680 -1279l-94 17z" />
<glyph unicode="0" horiz-adv-x="922" d="M81 380v390q0 79 30 148t81.5 120.5t120.5 81.5t148 30t148 -30t120.5 -81.5t81.5 -120.5t30 -148v-390q0 -79 -30 -148t-81.5 -120.5t-120.5 -81.5t-148 -30t-148 30t-120.5 81.5t-81.5 120.5t-30 148zM181 380q0 -58 22 -109t60 -89t89 -60t109 -22t109 22t89 60t60 89 t22 109v390q0 58 -22 109t-60 89t-89 60t-109 22t-109 -22t-89 -60t-60 -89t-22 -109v-390z" />
<glyph unicode="1" horiz-adv-x="820" d="M247 1042v97q14 5 31 8t37 3q36 0 68 -13.5t56 -37.5t37.5 -56t13.5 -68v-965l-10 -10h-80l-10 10v965q0 32 -21.5 53.5t-53.5 21.5q-17 0 -31.5 -1.5t-26.5 -6.5h-10z" />
<glyph unicode="2" horiz-adv-x="842" d="M80 150q0 55 24 104.5t66.5 96.5t100.5 93t127 96q61 44 113 84t89.5 77.5t58.5 74t21 74.5q0 42 -15.5 78.5t-42.5 63.5t-63.5 42.5t-78.5 15.5q-19 0 -58 -2.5t-87.5 -7t-101 -10.5t-98.5 -12l-8 4v98q49 7 103 13t103.5 9.5t88.5 5.5t58 2q62 0 117 -23.5t95.5 -64 t64 -95.5t23.5 -117q0 -68 -26 -118.5t-70 -94.5t-102.5 -86t-123.5 -91t-116.5 -90.5t-87.5 -78t-55 -71t-19 -70.5q0 -21 14.5 -35.5t35.5 -14.5h102.5t141.5 1.5t154.5 3.5t143.5 7l8 -4v-98q-45 -3 -96.5 -4.5t-104 -2.5t-104.5 -1.5t-98 -1t-84 -0.5h-63 q-31 0 -58.5 12t-47.5 32t-32 47.5t-12 58.5z" />
<glyph unicode="3" horiz-adv-x="811" d="M57 40v98l8 4q46 -10 99.5 -18t103.5 -13t90 -8t59 -3q46 0 87 17.5t72 48.5t48.5 71.5t17.5 87.5q0 45 -17 85.5t-46 70.5t-68.5 48.5t-84.5 20.5h-124l-10 10v80l10 10h140q42 0 78.5 15.5t63.5 42.5t42.5 63.5t15.5 78.5t-15.5 78.5t-42.5 63.5t-63.5 42.5t-78.5 15.5 q-19 0 -59 -3t-90 -8t-103.5 -13t-99.5 -18l-8 4v98q49 9 104 16.5t106 13t91 8t59 2.5q62 0 117 -23.5t95.5 -64t64 -95.5t23.5 -117q0 -82 -42.5 -149t-117.5 -107q75 -44 117.5 -114.5t42.5 -154.5q0 -67 -25.5 -126t-70 -103.5t-103.5 -70t-126 -25.5q-19 0 -59 2.5 t-91 8t-106 13t-104 16.5z" />
<glyph unicode="4" horiz-adv-x="860" d="M60 600q0 35 12.5 79t32.5 92.5t46.5 99.5t54.5 100.5t55.5 95t50.5 83.5q3 0 14 -1q9 -1 26.5 -3t47.5 -6l10 -10q-16 -32 -41 -75t-52.5 -91t-55.5 -99t-50.5 -99t-36.5 -91t-14 -75q0 -31 12 -58.5t32 -47.5t47.5 -32t58.5 -12h270v690l10 10h80l10 -10v-690h130 l10 -10v-80l-10 -10h-130v-340l-10 -10h-80l-10 10v340h-270q-52 0 -97.5 19.5t-79.5 53.5t-53.5 79.5t-19.5 97.5z" />
<glyph unicode="5" horiz-adv-x="831" d="M60 60v98l8 4q42 -14 92.5 -25.5t98.5 -19.5t87 -12.5t58 -4.5q60 0 106.5 19.5t78.5 53.5t48.5 79.5t16.5 97.5q0 64 -21 111t-68.5 78t-125 46t-189.5 15q-36 0 -68 13.5t-56 37.5t-37.5 56t-13.5 68v200q0 36 13.5 68t37.5 56t56 37.5t68 13.5q47 0 96.5 -1 t104.5 -3.5t117.5 -6t135.5 -9.5v-98l-8 -4q-70 6 -137.5 10.5t-127 7t-106.5 3.5t-75 1q-32 0 -53.5 -21.5t-21.5 -53.5v-200q0 -32 21.5 -53.5t53.5 -21.5q144 0 241 -24t155.5 -69t83 -110t24.5 -147q0 -72 -22.5 -136t-66.5 -111.5t-109.5 -75t-151.5 -27.5 q-19 0 -58 3.5t-87.5 11t-101 19t-97.5 26.5z" />
<glyph unicode="6" horiz-adv-x="832" d="M66 350q0 87 23 173t62 165.5t90 151.5t107 131.5t112.5 105t107.5 73.5l71 -40l5 -13q-57 -36 -115 -85.5t-112 -108t-101.5 -125.5t-84.5 -138q39 26 87.5 43t97.5 17q72 0 136 -27.5t111.5 -75t75 -111.5t27.5 -136t-27.5 -136t-75 -111.5t-111.5 -75t-136 -27.5 t-136 27.5t-111.5 75t-75 111.5t-27.5 136zM166 350q0 -52 19.5 -97.5t53.5 -79.5t79.5 -53.5t97.5 -19.5t97.5 19.5t79.5 53.5t53.5 79.5t19.5 97.5t-19.5 97.5t-53.5 79.5t-79.5 53.5t-97.5 19.5t-97.5 -19.5t-79.5 -53.5t-53.5 -79.5t-19.5 -97.5z" />
<glyph unicode="7" horiz-adv-x="799" d="M45 1032v98q75 4 149 7.5t142 6.5t127.5 4.5t106.5 1.5q36 0 68 -13.5t56 -37.5t37.5 -56t13.5 -68q0 -28 -4.5 -52.5t-13 -48.5t-21 -49t-28.5 -53l-440 -772l-100 15l-10 10l458 778q15 25 26 46t18.5 40.5t11 40t3.5 45.5q0 32 -21.5 53.5t-53.5 21.5q-28 0 -85.5 -2 t-129.5 -5t-151 -7t-151 -8z" />
<glyph unicode="8" horiz-adv-x="846" d="M88 335q0 93 49.5 169t132.5 120q-64 40 -100.5 101.5t-36.5 134.5q0 60 23 113t62 92t92 62t113 23t113 -23t92 -62t62 -92t23 -113q0 -73 -36.5 -134.5t-100.5 -101.5q83 -44 132.5 -120t49.5 -169q0 -69 -26.5 -130t-72 -106.5t-106.5 -72t-130 -26.5t-130 26.5 t-106.5 72t-72 106.5t-26.5 130zM188 335q0 -49 18.5 -91.5t50.5 -74.5t74.5 -50.5t91.5 -18.5t91.5 18.5t74.5 50.5t50.5 74.5t18.5 91.5t-18.5 91.5t-50.5 74.5t-74.5 50.5t-91.5 18.5h-10q-47 -2 -88 -21t-71.5 -51t-48 -74t-17.5 -89zM233 860q0 -39 15 -74t40.5 -60.5 t60.5 -40.5t74 -15t74 15t60.5 40.5t40.5 60.5t15 74t-15 74t-40.5 60.5t-60.5 40.5t-74 15t-74 -15t-60.5 -40.5t-40.5 -60.5t-15 -74z" />
<glyph unicode="9" horiz-adv-x="833" d="M65 800q0 72 27.5 136t75 111.5t111.5 75t136 27.5t136 -27.5t111.5 -75t75 -111.5t27.5 -136q0 -87 -23 -173t-62 -165.5t-90 -151.5t-107 -131.5t-113 -105.5t-107 -73l-71 40l-5 13q57 36 115 85.5t112 108t101.5 125.5t84.5 138q-39 -26 -87.5 -43t-97.5 -17 q-72 0 -136 27.5t-111.5 75t-75 111.5t-27.5 136zM165 800q0 -52 19.5 -97.5t53.5 -79.5t79.5 -53.5t97.5 -19.5t97.5 19.5t79.5 53.5t53.5 79.5t19.5 97.5t-19.5 97.5t-53.5 79.5t-79.5 53.5t-97.5 19.5t-97.5 -19.5t-79.5 -53.5t-53.5 -79.5t-19.5 -97.5z" />
<glyph unicode=":" horiz-adv-x="360" d="M80 100q0 42 29 71t71 29t71 -29t29 -71t-29 -71t-71 -29t-71 29t-29 71zM80 700q0 42 29 71t71 29t71 -29t29 -71t-29 -71t-71 -29t-71 29t-29 71z" />
<glyph unicode=";" horiz-adv-x="360" d="M45 -110l10 10q45 0 79.5 28.5t42.5 71.5q-41 1 -69 30t-28 70q0 42 29 71t71 29t71 -29t29 -71v-75q0 -47 -17.5 -87.5t-48.5 -71.5t-72 -48.5t-87 -17.5l-10 10v80zM80 700q0 42 29 71t71 29t71 -29t29 -71t-29 -71t-71 -29t-71 29t-29 71z" />
<glyph unicode="&#x3c;" horiz-adv-x="694" d="M44 451q0 22 10 41t29.5 38t47.5 38.5t63 42.5l440 291l10 -10v-101l-408 -275q-14 -9 -27.5 -18.5t-24 -18t-17.5 -16t-7 -12.5t7 -12.5t17.5 -16t24 -18t27.5 -18.5l408 -275v-101l-10 -10l-440 291q-35 23 -63 42.5t-47.5 38.5t-29.5 38t-10 41z" />
<glyph unicode="=" horiz-adv-x="920" d="M60 349v80l10 10h780l10 -10v-80l-10 -10h-780zM60 575v80l10 10h780l10 -10v-80l-10 -10h-780z" />
<glyph unicode="&#x3e;" horiz-adv-x="694" d="M50 10v101l408 275q13 9 27 18.5t24.5 18t17.5 16t7 12.5t-7 12.5t-17.5 16t-24.5 18t-27 18.5l-408 275v101l10 10l440 -291q35 -23 63 -42.5t47.5 -38.5t29.5 -38t10 -41q0 -44 -40 -79t-110 -81l-440 -291z" />
<glyph unicode="?" horiz-adv-x="750" d="M50 829q0 66 25 124.5t68.5 102t102 69t124.5 25.5t124.5 -25.5t102 -69t69 -102t25.5 -124.5q0 -45 -18 -85t-44.5 -77t-58 -71t-58 -67t-44.5 -65t-18 -64v-40l-10 -10h-80l-10 10v58q0 34 18 68t44.5 68t58 68t58 68t44.5 69t18 70q0 46 -17.5 86t-47.5 70t-70 47.5 t-86 17.5t-86 -17.5t-70 -47.5t-47 -70t-17 -86q0 -11 0.5 -23t4.5 -24v-10l-94 -11q-5 14 -8 31t-3 37zM300 100q0 -42 29 -71t71 -29t71 29t29 71t-29 71t-71 29t-71 -29t-29 -71z" />
<glyph unicode="@" horiz-adv-x="1226" d="M60 550q0 114 43 214t118 175t175 118t214 43t214 -43t175 -118t118 -175t43 -214q0 -85 -27.5 -146t-69.5 -99t-92 -52.5t-94.5 -7.5t-77 36t-39.5 79q-35 -38 -80 -59t-95 -21q-57 0 -107 21.5t-87.5 59t-59 87.5t-21.5 107t21.5 107t59 87.5t87.5 59t107 21.5 q50 0 94.5 -21t80.5 -59v70l10 10h80l10 -10v-420q0 -31 15 -47.5t37 -18t48 11.5t48 40.5t37 68t15 95.5q0 93 -35.5 175t-96.5 143t-143 96.5t-175 35.5t-175 -35.5t-143 -96.5t-96.5 -143t-35.5 -175t35.5 -175t96.5 -143t143 -96.5t175 -35.5q64 0 108.5 4.5t83 17 t77 34t91.5 55.5l14 -4l46 -77q-56 -38 -105 -63t-97.5 -40t-101 -21t-116.5 -6q-114 0 -214 43t-175 118t-118 175t-43 214zM410 555q0 -36 13.5 -68t37.5 -56t56 -37.5t68 -13.5t68 13.5t56 37.5t37.5 56t13.5 68t-13.5 68t-37.5 56t-56 37.5t-68 13.5t-68 -13.5 t-56 -37.5t-37.5 -56t-13.5 -68z" />
<glyph unicode="A" horiz-adv-x="1000" d="M100 10v740q0 83 31.5 156t85.5 127t127 85.5t156 31.5t156 -31.5t127 -85.5t85.5 -127t31.5 -156v-740l-10 -10h-80l-10 10v440h-600v-440l-10 -10h-80zM200 550h600v200q0 62 -23.5 117t-64 95.5t-95.5 64t-117 23.5t-117 -23.5t-95.5 -64t-64 -95.5t-23.5 -117v-200z " />
<glyph unicode="B" horiz-adv-x="959" d="M100 150v850q0 31 12 58.5t32 47.5t47.5 32t58.5 12h300q62 0 117 -23.5t95.5 -64t64 -95.5t23.5 -117q0 -75 -32.5 -137t-92.5 -103q79 -42 127 -117t48 -168q0 -67 -25.5 -126t-70 -103.5t-103.5 -70t-126 -25.5h-325q-31 0 -58.5 12t-47.5 32t-32 47.5t-12 58.5z M200 150q0 -21 14.5 -35.5t35.5 -14.5h325q46 0 87 17.5t72 48.5t48.5 71.5t17.5 87.5q0 46 -17.5 87t-48.5 72t-72 48.5t-87 17.5h-375v-400zM200 650h350q42 0 78.5 15.5t63.5 42.5t42.5 63.5t15.5 78.5t-15.5 78.5t-42.5 63.5t-63.5 42.5t-78.5 15.5h-300 q-21 0 -35.5 -14.5t-14.5 -35.5v-350z" />
<glyph unicode="C" horiz-adv-x="874" d="M77 400v350q0 83 31.5 156t85.5 127t127 85.5t156 31.5q51 0 96.5 -7t87 -18.5t79.5 -27t76 -32.5v-107l-8 -4q-81 42 -162.5 69t-168.5 27q-62 0 -117 -23.5t-95.5 -64t-64 -95.5t-23.5 -117v-350q0 -62 23.5 -117t64 -95.5t95.5 -64t117 -23.5q87 0 168.5 27t162.5 69 l8 -4v-107q-38 -17 -76 -32.5t-79.5 -27t-87 -18.5t-96.5 -7q-83 0 -156 31.5t-127 85.5t-85.5 127t-31.5 156z" />
<glyph unicode="D" horiz-adv-x="978" d="M100 150v850q0 31 12 58.5t32 47.5t47.5 32t58.5 12h200q93 0 175 -42.5t143 -118.5t96.5 -180.5t35.5 -228.5q0 -128 -35.5 -234.5t-96.5 -183t-143 -119.5t-175 -43h-200q-31 0 -58.5 12t-47.5 32t-32 47.5t-12 58.5zM200 150q0 -21 14.5 -35.5t35.5 -14.5h200 q72 0 136 41t111.5 108.5t75 154t27.5 176.5q0 86 -27.5 170.5t-75 151t-111.5 107.5t-136 41h-200q-21 0 -35.5 -14.5t-14.5 -35.5v-850z" />
<glyph unicode="E" horiz-adv-x="890" d="M100 150v850q0 31 12 58.5t32 47.5t47.5 32t58.5 12h590l10 -10v-80l-10 -10h-590q-21 0 -35.5 -14.5t-14.5 -35.5v-350h490l10 -10v-80l-10 -10h-490v-400q0 -21 14.5 -35.5t35.5 -14.5h590l10 -10v-80l-10 -10h-590q-31 0 -58.5 12t-47.5 32t-32 47.5t-12 58.5z" />
<glyph unicode="F" horiz-adv-x="890" d="M100 10v990q0 31 12 58.5t32 47.5t47.5 32t58.5 12h590l10 -10v-80l-10 -10h-590q-21 0 -35.5 -14.5t-14.5 -35.5v-350h490l10 -10v-80l-10 -10h-490v-540l-10 -10h-80z" />
<glyph unicode="G" horiz-adv-x="967" d="M100 400v350q0 83 31.5 156t85.5 127t127 85.5t156 31.5q51 0 95 -7t84 -20.5t76.5 -32t74.5 -41.5v-109l-8 -4q-81 48 -158.5 81t-163.5 33q-62 0 -117 -23.5t-95.5 -64t-64 -95.5t-23.5 -117v-350q0 -62 23.5 -117t64 -95.5t95.5 -64t117 -23.5t117 23.5t95.5 64 t64 95.5t23.5 117q0 10 -1 30.5t-7.5 40t-21 34.5t-40.5 15h-220l-10 10v80l10 10h220q49 0 81.5 -22.5t52 -56t28 -72t8.5 -69.5q0 -83 -31.5 -156t-85.5 -127t-127 -85.5t-156 -31.5t-156 31.5t-127 85.5t-85.5 127t-31.5 156z" />
<glyph unicode="H" horiz-adv-x="1000" d="M100 10v1130l10 10h80l10 -10v-490h600v490l10 10h80l10 -10v-1130l-10 -10h-80l-10 10v540h-600v-540l-10 -10h-80z" />
<glyph unicode="I" horiz-adv-x="340" d="M120 10v1130l10 10h80l10 -10v-1130l-10 -10h-80z" />
<glyph unicode="J" horiz-adv-x="751" d="M40 108v108l14 4q32 -24 66.5 -46t68.5 -38.5t66.5 -26t59.5 -9.5q52 0 97.5 19.5t79.5 53.5t53.5 79.5t19.5 97.5v790l10 10h80l10 -10v-790q0 -72 -27.5 -136t-75 -111.5t-111.5 -75t-136 -27.5q-65 0 -132.5 23t-142.5 85z" />
<glyph unicode="K" horiz-adv-x="970" d="M100 10v1130l10 10h80l10 -10v-490q150 0 256 42.5t172.5 111t96.5 154.5q27 78 27 156v16l10 10q30 4 47.5 6t26.5 3q11 1 14 1q4 -26 3 -53q-1 -32 -5 -67q-10 -63 -36.5 -124.5t-70.5 -118.5t-106 -102q58 -15 106.5 -47.5t84 -78t55 -101t19.5 -116.5v-332l-10 -10 h-80l-10 10v332q0 52 -26 99.5t-67.5 84t-94 58t-105.5 23.5q-64 -27 -140.5 -42t-166.5 -15v-540l-10 -10h-80z" />
<glyph unicode="L" horiz-adv-x="805" d="M100 150v990l10 10h80l10 -10v-990q0 -21 14.5 -35.5t35.5 -14.5h520l10 -10v-80l-10 -10h-520q-31 0 -58.5 12t-47.5 32t-32 47.5t-12 58.5z" />
<glyph unicode="M" horiz-adv-x="1200" d="M100 10v990q0 31 12 58.5t32 47.5t47.5 32t58.5 12t55 -12.5t42 -33t31 -47.5t22 -57l200 -650l200 650q9 30 22 57t31 47.5t42 33t55 12.5t58.5 -12t47.5 -32t32 -47.5t12 -58.5v-990l-10 -10h-80l-10 10v990q0 21 -14.5 35.5t-35.5 14.5t-32.5 -15t-17.5 -35l-250 -775 q-5 -14 -20.5 -19.5t-29.5 -5.5t-29.5 5.5t-20.5 19.5l-250 775q-6 20 -17.5 35t-32.5 15t-35.5 -14.5t-14.5 -35.5v-990l-10 -10h-80z" />
<glyph unicode="N" horiz-adv-x="1000" d="M100 10v990q0 31 12 58.5t32 47.5t47.5 32t58.5 12t54.5 -12.5t41.5 -33.5t31 -48t23 -56l300 -850q7 -20 18 -35t32 -15t35.5 14.5t14.5 35.5v990l10 10h80l10 -10v-990q0 -31 -12 -58.5t-32 -47.5t-47.5 -32t-58.5 -12t-54.5 12.5t-41.5 33.5t-31 48t-23 56l-300 850 q-7 20 -18 35t-32 15t-35.5 -14.5t-14.5 -35.5v-990l-10 -10h-80z" />
<glyph unicode="O" horiz-adv-x="1028" d="M64 450v250q0 93 35.5 175t96.5 143t143 96.5t175 35.5t175 -35.5t143 -96.5t96.5 -143t35.5 -175v-250q0 -93 -35.5 -175t-96.5 -143t-143 -96.5t-175 -35.5t-175 35.5t-143 96.5t-96.5 143t-35.5 175zM164 450q0 -72 27.5 -136t75 -111.5t111.5 -75t136 -27.5t136 27.5 t111.5 75t75 111.5t27.5 136v250q0 72 -27.5 136t-75 111.5t-111.5 75t-136 27.5t-136 -27.5t-111.5 -75t-75 -111.5t-27.5 -136v-250z" />
<glyph unicode="P" horiz-adv-x="910" d="M100 10v990q0 31 12 58.5t32 47.5t47.5 32t58.5 12h300q62 0 117 -23.5t95.5 -64t64 -95.5t23.5 -117t-23.5 -117t-64 -95.5t-95.5 -64t-117 -23.5h-350v-540l-10 -10h-80zM200 650h350q42 0 78.5 15.5t63.5 42.5t42.5 63.5t15.5 78.5t-15.5 78.5t-42.5 63.5t-63.5 42.5 t-78.5 15.5h-300q-21 0 -35.5 -14.5t-14.5 -35.5v-350z" />
<glyph unicode="Q" horiz-adv-x="1033" d="M64 450v250q0 93 35.5 175t96.5 143t143 96.5t175 35.5t175 -35.5t143 -96.5t96.5 -143t35.5 -175v-250q0 -60 -14.5 -114t-41.5 -103q27 -48 41.5 -102.5t14.5 -113.5q0 -7 -4 -17h-97v10l1 7q0 66 -23 124q-62 -66 -146 -103.5t-181 -37.5q-93 0 -175 35.5t-143 96.5 t-96.5 143t-35.5 175zM164 450q0 -72 27.5 -136t75 -111.5t111.5 -75t136 -27.5q84 0 155.5 36t119.5 97q-48 62 -119.5 98t-155.5 36l-7 -1h-10v97q10 4 17 4q97 0 181 -38t146 -104q23 60 23 125v250q0 72 -27.5 136t-75 111.5t-111.5 75t-136 27.5t-136 -27.5t-111.5 -75 t-75 -111.5t-27.5 -136v-250z" />
<glyph unicode="R" horiz-adv-x="929" d="M100 10v990q0 31 12 58.5t32 47.5t47.5 32t58.5 12h300q62 0 117 -23.5t95.5 -64t64 -95.5t23.5 -117q0 -44 -12.5 -84.5t-35 -75t-54 -62t-68.5 -45.5q37 -24 68.5 -56t54 -70.5t35 -82t12.5 -89.5v-275l-10 -10h-80l-10 10v275q0 52 -25 100t-66 85t-94 58.5t-108 21.5 h-257v-540l-10 -10h-80zM200 650h350q42 0 78.5 15.5t63.5 42.5t42.5 63.5t15.5 78.5t-15.5 78.5t-42.5 63.5t-63.5 42.5t-78.5 15.5h-300q-21 0 -35.5 -14.5t-14.5 -35.5v-350z" />
<glyph unicode="S" horiz-adv-x="821" d="M50 850q0 62 23.5 117t64 95.5t95.5 64t117 23.5q19 0 62 -2t95.5 -5.5t107.5 -9.5t97 -13v-98l-8 -4q-39 8 -92 14t-105 10t-95 6t-62 2q-42 0 -78.5 -15.5t-63.5 -42.5t-42.5 -63.5t-15.5 -78.5t15.5 -78.5t42.5 -63.5t63.5 -42.5t78.5 -15.5h87q67 0 126 -25.5 t103.5 -70t70 -103.5t25.5 -126t-25.5 -126t-70 -103.5t-103.5 -70t-126 -25.5q-14 0 -54.5 1t-94 4.5t-111.5 9.5t-107 15v98l8 4q46 -8 102.5 -14t109 -10t93 -6t54.5 -2q46 0 87 17.5t72 48.5t48.5 71.5t17.5 87.5q0 46 -17.5 87t-48.5 72t-72 48.5t-87 17.5h-87 q-62 0 -117 23.5t-95.5 64t-64 95.5t-23.5 117z" />
<glyph unicode="T" horiz-adv-x="860" d="M30 1060v80l10 10h780l10 -10v-80l-10 -10h-340v-1040l-10 -10h-80l-10 10v1040h-340z" />
<glyph unicode="U" horiz-adv-x="974" d="M87 400v740l10 10h80l10 -10v-740q0 -62 23.5 -117t64 -95.5t95.5 -64t117 -23.5t117 23.5t95.5 64t64 95.5t23.5 117v740l10 10h80l10 -10v-740q0 -83 -31.5 -156t-85.5 -127t-127 -85.5t-156 -31.5t-156 31.5t-127 85.5t-85.5 127t-31.5 156z" />
<glyph unicode="V" horiz-adv-x="958" d="M28 1140l10 10h80l10 -10l291 -990q9 -30 25.5 -40t34.5 -10t34.5 10t25.5 40l291 990l10 10h80l10 -10l-291 -990q-23 -77 -60.5 -113.5t-99.5 -36.5t-99.5 36.5t-60.5 113.5z" />
<glyph unicode="W" horiz-adv-x="1361" d="M100 315v825l10 10h80l10 -10v-825q0 -45 17 -84t46 -68t68 -46t84 -17t84 17t68.5 46t46.5 68t17 84v825l10 10h80l10 -10v-825q0 -45 17 -84t46 -68t68 -46t84 -17t84 17t68.5 46t46.5 68t17 84v825l10 10h80l10 -10v-825q0 -65 -25 -122.5t-68 -100.5t-100.5 -67.5 t-122.5 -24.5q-85 0 -154 42.5t-111 117.5q-43 -75 -112.5 -117.5t-153.5 -42.5q-65 0 -122.5 24.5t-100.5 67.5t-67.5 100.5t-24.5 122.5z" />
<glyph unicode="X" horiz-adv-x="972" d="M86 250q0 56 15.5 108.5t44 97.5t69 81.5t91.5 62.5q-51 25 -91.5 62t-69 82t-44 97t-15.5 109v190l10 10h80l10 -10v-190q0 -62 23.5 -117t64 -95.5t95.5 -64t117 -23.5t117 23.5t95.5 64t64 95.5t23.5 117q0 17 -1 40t-2.5 48t-4 49t-5.5 43l10 10q30 4 47.5 6t26.5 3 q11 1 14 1q4 -26 6.5 -57t4.5 -59.5t3 -51.5t1 -32q0 -57 -15.5 -109t-44 -97t-69 -82t-91.5 -62q51 -26 91.5 -62.5t69 -81.5t44 -97.5t15.5 -108.5v-240l-10 -10h-80l-10 10v240q0 62 -23.5 117t-64 95.5t-95.5 64t-117 23.5t-117 -23.5t-95.5 -64t-64 -95.5t-23.5 -117 q0 -15 1 -43.5t2.5 -62t4 -67t5.5 -57.5l-10 -10q-30 -4 -47.5 -6t-26.5 -3q-11 -1 -14 -1q-4 26 -6.5 65t-4.5 77t-3 68.5t-1 39.5z" />
<glyph unicode="Y" horiz-adv-x="920" d="M60 950v190l10 10h80l10 -10v-190q0 -62 23.5 -117t64 -95.5t95.5 -64t117 -23.5t117 23.5t95.5 64t64 95.5t23.5 117v190l10 10h80l10 -10v-190q0 -77 -27 -145t-74 -121t-111 -87.5t-138 -43.5v-543l-10 -10h-80l-10 10v543q-74 9 -138 43.5t-111 87.5t-74 121t-27 145 z" />
<glyph unicode="Z" horiz-adv-x="918" d="M61 250q0 52 34 104t89.5 103.5t126 103t142.5 104.5q57 42 112.5 82.5t99 77.5t70 69t26.5 56q0 42 -29 71t-71 29h-69.5t-117 -1.5t-159.5 -4t-196 -6.5l-8 4v98q109 4 200.5 6t162 3t118 1h69.5q41 0 77.5 -16t63.5 -43t43 -63.5t16 -77.5q0 -47 -30.5 -92t-81 -90 t-115 -90t-131.5 -93q-66 -47 -127.5 -93.5t-109 -90.5t-76.5 -82.5t-29 -68.5q0 -31 12 -58.5t32 -47.5t47.5 -32t58.5 -12h88t123.5 1.5t153 3.5t177.5 7l8 -4v-98q-97 -4 -182 -6t-155.5 -3t-124.5 -1h-88q-52 0 -97.5 19.5t-79.5 53.5t-53.5 79.5t-19.5 97.5z" />
<glyph unicode="[" horiz-adv-x="390" d="M90 100v900q0 41 16 77.5t43 63.5t63.5 43t77.5 16q20 0 37 -3t31 -8v-97h-10q-12 5 -26.5 6.5t-31.5 1.5q-42 0 -71 -29t-29 -71v-900q0 -42 29 -71t71 -29q17 0 31.5 1.5t26.5 6.5h10v-97q-14 -5 -31 -8t-37 -3q-41 0 -77.5 16t-63.5 43t-43 63.5t-16 77.5z" />
<glyph unicode="\" horiz-adv-x="849" d="M33 1179l10 10l99 11l675 -1273l-10 -10l-94 -17z" />
<glyph unicode="]" horiz-adv-x="390" d="M32 8h10q12 -5 26.5 -6.5t31.5 -1.5q42 0 71 29t29 71v900q0 42 -29 71t-71 29q-17 0 -31.5 -1.5t-26.5 -6.5h-10v97q14 5 31 8t37 3q41 0 77.5 -16t63.5 -43t43 -63.5t16 -77.5v-900q0 -41 -16 -77.5t-43 -63.5t-63.5 -43t-77.5 -16q-20 0 -37 3t-31 8v97z" />
<glyph unicode="^" horiz-adv-x="980" d="M39 560l291 440q46 70 81 110t79 40q22 0 41 -10t38 -29.5t38.5 -47.5t42.5 -63l291 -440l-10 -10h-101l-275 408q-9 13 -18.5 27t-18 24.5t-16 17.5t-12.5 7t-12.5 -7t-16 -17.5t-18 -24.5t-18.5 -27l-275 -408h-101z" />
<glyph unicode="_" horiz-adv-x="900" d="M50 -10l10 10h780l10 -10v-80l-10 -10h-780l-10 10v80z" />
<glyph unicode="`" horiz-adv-x="400" d="M99 1149.5q0 20.5 15 35.5t35.5 15t35.5 -15q13 -13 33 -40t40.5 -58t38.5 -62t29 -52q-21 10 -52 28.5t-62 39t-58 40.5t-40 33q-15 15 -15 35.5z" />
<glyph unicode="a" horiz-adv-x="779" d="M59 275q0 57 24 107t64 87.5t92.5 59t109.5 21.5q59 0 110.5 -21t99.5 -74v125q0 42 -15.5 78.5t-42.5 63.5t-63.5 42.5t-78.5 15.5q-34 0 -65 -10.5t-56 -29.5t-43 -45.5t-27 -57.5l-7 -4q-1 0 -14 5.5t-30 12.5q-19 8 -44 19q14 46 41.5 84.5t65 66.5t83.5 43.5 t96 15.5q62 0 117 -23.5t95.5 -64t64 -95.5t23.5 -117v-430q0 -21 14.5 -35.5t35.5 -14.5l7 1h10v-97q-10 -4 -17 -4q-31 0 -58.5 9t-47.5 24.5t-32 36.5t-12 45q-34 -60 -90 -87.5t-120 -27.5q-57 0 -109.5 21.5t-92.5 59t-64 87.5t-24 107zM159 275q0 -36 16 -68t42.5 -56 t61 -37.5t70.5 -13.5t73.5 13.5t68 36.5t49.5 55t19 70q0 39 -19 71.5t-49.5 55.5t-68 35.5t-73.5 12.5t-70.5 -13.5t-61 -37.5t-42.5 -56t-16 -68z" />
<glyph unicode="b" horiz-adv-x="790" d="M53 4v97h10l7 -1q21 0 35.5 14.5t14.5 35.5v1040l10 10h80l10 -10v-415q40 49 91 77t109 28q62 0 117 -23.5t95.5 -64t64 -95.5t23.5 -117v-280q0 -62 -23.5 -117t-64 -95.5t-95.5 -64t-117 -23.5q-63 0 -114 32.5t-86 91.5q0 -26 -12 -49t-32 -39.5t-47.5 -26 t-58.5 -9.5q-7 0 -17 4zM220 300q0 -42 15.5 -78.5t42.5 -63.5t63.5 -42.5t78.5 -15.5t78.5 15.5t63.5 42.5t42.5 63.5t15.5 78.5v280q0 42 -15.5 78.5t-42.5 63.5t-63.5 42.5t-78.5 15.5q-41 0 -76.5 -15t-62.5 -41t-43.5 -61t-17.5 -75v-288z" />
<glyph unicode="c" horiz-adv-x="670" d="M70 300v280q0 62 23.5 117t64 95.5t95.5 64t117 23.5q41 0 75.5 -4.5t64.5 -12.5t57 -19t53 -24v-107l-8 -4q-62 38 -118 54.5t-124 16.5q-42 0 -78.5 -15.5t-63.5 -42.5t-42.5 -63.5t-15.5 -78.5v-280q0 -42 15.5 -78.5t42.5 -63.5t63.5 -42.5t78.5 -15.5q68 0 124 16.5 t118 54.5l8 -4v-107q-26 -13 -53 -24t-57 -19t-64.5 -12.5t-75.5 -4.5q-62 0 -117 23.5t-95.5 64t-64 95.5t-23.5 117z" />
<glyph unicode="d" horiz-adv-x="790" d="M70 300v280q0 62 23.5 117t64 95.5t95.5 64t117 23.5q58 0 109 -28t91 -77v415l10 10h80l10 -10v-1040q0 -21 14.5 -35.5t35.5 -14.5l7 1h10v-97q-10 -4 -17 -4q-31 0 -58.5 9.5t-47.5 26t-32 39.5t-12 49q-35 -59 -86 -91.5t-114 -32.5q-62 0 -117 23.5t-95.5 64 t-64 95.5t-23.5 117zM170 300q0 -42 15.5 -78.5t42.5 -63.5t63.5 -42.5t78.5 -15.5t78.5 15.5t63.5 42.5t42.5 63.5t15.5 78.5v288q-2 40 -18 75t-43 61t-63 41t-76 15q-42 0 -78.5 -15.5t-63.5 -42.5t-42.5 -63.5t-15.5 -78.5v-280z" />
<glyph unicode="e" horiz-adv-x="750" d="M80 300v280q0 62 23.5 117t64 95.5t95.5 64t117 23.5t117 -23.5t95.5 -64t64 -95.5t23.5 -117q0 -38 -14 -70.5t-39 -57t-58 -38.5t-70 -14h-319v-100q0 -42 15.5 -78.5t42.5 -63.5t63.5 -42.5t78.5 -15.5q34 0 67 10.5t60.5 29.5t48 45.5t29.5 57.5l7 4q7 -2 14 -6 q6 -3 14 -6.5t16 -6.5l44 -18q-14 -46 -44 -84.5t-70 -66.5t-88 -43.5t-98 -15.5q-62 0 -117 23.5t-95.5 64t-64 95.5t-23.5 117zM180 500h319q34 0 57.5 23.5t23.5 56.5q0 42 -15.5 78.5t-42.5 63.5t-63.5 42.5t-78.5 15.5t-78.5 -15.5t-63.5 -42.5t-42.5 -63.5 t-15.5 -78.5v-80z" />
<glyph unicode="f" horiz-adv-x="520" d="M30 770v80l10 10h160v140q0 41 16 77.5t43 63.5t63.5 43t77.5 16q23 0 49 -9t41 -19v-97h-10q-12 8 -34.5 16.5t-45.5 8.5q-42 0 -71 -29t-29 -71v-140h180l10 -10v-80l-10 -10h-180v-750l-10 -10h-80l-10 10v750h-160z" />
<glyph unicode="g" horiz-adv-x="790" d="M70 -190l44 18q17 7 30 13t14 6l7 -4q9 -31 29.5 -57.5t48 -45.5t60.5 -29.5t67 -10.5q42 0 78.5 15.5t63.5 42.5t42.5 63.5t15.5 78.5v205q-40 -49 -91 -77t-109 -28q-62 0 -117 23.5t-95.5 64t-64 95.5t-23.5 117v280q0 62 23.5 117t64 95.5t95.5 64t117 23.5 q63 0 116.5 -32t83.5 -92q8 53 43 88.5t90 35.5q7 0 17 -4v-97h-10l-7 1q-17 0 -25 -14.5t-8 -35.5v-830q0 -62 -23.5 -117t-64 -95.5t-95.5 -64t-117 -23.5q-50 0 -98 15.5t-88 43.5t-70 66.5t-44 84.5zM170 300q0 -42 15.5 -78.5t42.5 -63.5t63.5 -42.5t78.5 -15.5 q40 0 76 15t63 41t43 61t18 75v288q0 42 -15.5 78.5t-42.5 63.5t-63.5 42.5t-78.5 15.5t-78.5 -15.5t-63.5 -42.5t-42.5 -63.5t-15.5 -78.5v-280z" />
<glyph unicode="h" horiz-adv-x="790" d="M100 10v1180l10 10h80l10 -10v-415q40 49 91 77t109 28q62 0 117 -23.5t95.5 -64t64 -95.5t23.5 -117v-570l-10 -10h-80l-10 10v570q0 42 -15.5 78.5t-42.5 63.5t-63.5 42.5t-78.5 15.5q-41 0 -76.5 -15t-62.5 -41t-43.5 -61t-17.5 -75v-578l-10 -10h-80z" />
<glyph unicode="i" horiz-adv-x="340" d="M95 1125q0 31 22 53t53 22t53 -22t22 -53t-22 -53t-53 -22t-53 22t-22 53zM120 10v860l10 10h80l10 -10v-860l-10 -10h-80z" />
<glyph unicode="j" horiz-adv-x="390" d="M-70 -275h10q12 -8 34.5 -16.5t45.5 -8.5q31 0 58.5 12t47.5 32t32 47.5t12 58.5v1020l10 10h80l10 -10v-1020q0 -52 -19.5 -97.5t-53.5 -79.5t-79.5 -53.5t-97.5 -19.5q-23 0 -49 9t-41 19v97zM145 1125q0 31 22 53t53 22t53 -22t22 -53t-22 -53t-53 -22t-53 22t-22 53z " />
<glyph unicode="k" horiz-adv-x="770" d="M100 10v1180l10 10h80l10 -10v-640q86 0 154.5 16t116.5 52t73.5 94.5t25.5 142.5l10 10l90 15q0 -72 -11.5 -127t-33.5 -97.5t-52.5 -74.5t-69.5 -57q36 -5 71.5 -22.5t63.5 -46t45 -67.5t17 -88v-290l-10 -10h-80l-10 10v290q0 34 -17 63.5t-45 52.5t-63.5 39t-71.5 22 q-46 -14 -96.5 -20.5t-106.5 -6.5v-440l-10 -10h-80z" />
<glyph unicode="l" horiz-adv-x="340" d="M120 10v1180l10 10h80l10 -10v-1180l-10 -10h-80z" />
<glyph unicode="m" horiz-adv-x="1110" d="M53 779v97q10 4 17 4q49 0 80.5 -24t51.5 -66q32 49 75.5 69.5t92.5 20.5q61 0 113 -30.5t87 -79.5q34 49 86 79.5t114 30.5q52 0 97.5 -19.5t79.5 -53.5t53.5 -79.5t19.5 -97.5v-620l-10 -10h-80l-10 10v620q0 31 -12 58.5t-32 47.5t-47.5 32t-58.5 12t-58.5 -12 t-47.5 -32t-32 -47.5t-12 -58.5v-620l-10 -10h-80l-10 10v620q0 31 -12 58.5t-32 47.5t-47.5 32t-58.5 12q-30 0 -57 -11.5t-47.5 -31t-32.5 -45.5t-13 -56v-626l-10 -10h-80l-10 10v720q0 21 -14.5 35.5t-35.5 14.5l-7 -1h-10z" />
<glyph unicode="n" horiz-adv-x="810" d="M53 779v97q10 4 17 4q63 0 102.5 -36.5t47.5 -93.5q13 30 34 54.5t47.5 41t56.5 25.5t62 9q67 0 122.5 -23.5t95 -64t61 -95.5t21.5 -117v-570l-10 -10h-80l-10 10v570q0 42 -15.5 78.5t-42.5 63.5t-63.5 42.5t-78.5 15.5t-78.5 -15.5t-63.5 -42.5t-42.5 -63.5 t-15.5 -78.5v-570l-10 -10h-80l-10 10v720q0 21 -14.5 35.5t-35.5 14.5l-7 -1h-10z" />
<glyph unicode="o" horiz-adv-x="852" d="M76 350v180q0 72 27.5 136t75 111.5t111.5 75t136 27.5t136 -27.5t111.5 -75t75 -111.5t27.5 -136v-180q0 -72 -27.5 -136t-75 -111.5t-111.5 -75t-136 -27.5t-136 27.5t-111.5 75t-75 111.5t-27.5 136zM176 350q0 -52 19.5 -97.5t53.5 -79.5t79.5 -53.5t97.5 -19.5 t97.5 19.5t79.5 53.5t53.5 79.5t19.5 97.5v180q0 52 -19.5 97.5t-53.5 79.5t-79.5 53.5t-97.5 19.5t-97.5 -19.5t-79.5 -53.5t-53.5 -79.5t-19.5 -97.5v-180z" />
<glyph unicode="p" horiz-adv-x="790" d="M53 779v97q10 4 17 4q63 0 102.5 -35.5t47.5 -88.5q30 59 83.5 91.5t116.5 32.5q62 0 117 -23.5t95.5 -64t64 -95.5t23.5 -117v-280q0 -62 -23.5 -117t-64 -95.5t-95.5 -64t-117 -23.5q-58 0 -109 28t-91 77v-495l-10 -10h-80l-10 10v1120q0 21 -14.5 35.5t-35.5 14.5 l-7 -1h-10zM220 292q1 -40 17.5 -75t43.5 -61t62.5 -41t76.5 -15q42 0 78.5 15.5t63.5 42.5t42.5 63.5t15.5 78.5v280q0 42 -15.5 78.5t-42.5 63.5t-63.5 42.5t-78.5 15.5t-78.5 -15.5t-63.5 -42.5t-42.5 -63.5t-15.5 -78.5v-288z" />
<glyph unicode="q" horiz-adv-x="780" d="M70 300v280q0 62 23.5 117t64 95.5t95.5 64t117 23.5q63 0 116.5 -32.5t83.5 -91.5q8 53 43 88.5t90 35.5q7 0 17 -4v-97h-10l-7 1q-17 0 -25 -14.5t-8 -35.5v-1120l-10 -10h-80l-10 10v495q-40 -49 -91 -77t-109 -28q-62 0 -117 23.5t-95.5 64t-64 95.5t-23.5 117z M170 300q0 -42 15.5 -78.5t42.5 -63.5t63.5 -42.5t78.5 -15.5q40 0 76 15t63 41t43 61t18 75v288q0 42 -15.5 78.5t-42.5 63.5t-63.5 42.5t-78.5 15.5t-78.5 -15.5t-63.5 -42.5t-42.5 -63.5t-15.5 -78.5v-280z" />
<glyph unicode="r" horiz-adv-x="540" d="M53 779v97q10 4 17 4q63 0 102.5 -36.5t47.5 -93.5q13 30 34 54.5t47.5 41t56.5 25.5t62 9q23 0 49 -9t41 -19v-97h-10q-12 8 -34.5 16.5t-45.5 8.5q-42 0 -78.5 -15.5t-63.5 -42.5t-42.5 -63.5t-15.5 -78.5v-570l-10 -10h-80l-10 10v720q0 21 -14.5 35.5t-35.5 14.5 l-7 -1h-10z" />
<glyph unicode="s" horiz-adv-x="704" d="M49 640q0 49 19 93t51.5 77t76 51.5t93.5 18.5q45 -1 84 -3t75.5 -5.5t71.5 -8.5t73 -11v-98l-8 -4q-40 7 -76 13t-71.5 9.5t-71.5 5.5t-77 2q-29 0 -54.5 -11t-44.5 -30t-30 -44.5t-11 -54.5t11 -54.5t30 -44.5t44.5 -30t54.5 -11h110q52 0 97.5 -19.5t79.5 -53.5 t53.5 -79.5t19.5 -97.5t-19.5 -97.5t-53.5 -79.5t-79.5 -53.5t-97.5 -19.5q-45 1 -84 3t-75.5 5.5t-72 8.5t-72.5 11v98l8 4q40 -8 76 -13.5t71 -9t71.5 -5.5t77.5 -2q31 0 58.5 12t47.5 32t32 47.5t12 58.5t-12 58.5t-32 47.5t-47.5 32t-58.5 12h-110q-50 0 -93.5 19 t-76 51.5t-51.5 76t-19 93.5z" />
<glyph unicode="t" horiz-adv-x="540" d="M30 770v80l10 10h180v330l10 10h80l10 -10v-330h180l10 -10v-80l-10 -10h-180v-750l-10 -10h-80l-10 10v750h-180z" />
<glyph unicode="u" horiz-adv-x="810" d="M90 300v570l10 10h80l10 -10v-570q0 -42 15.5 -78.5t42.5 -63.5t63.5 -42.5t78.5 -15.5t78.5 15.5t63.5 42.5t42.5 63.5t15.5 78.5v570l10 10h80l10 -10v-720q0 -21 14.5 -35.5t35.5 -14.5l7 1h10v-97q-10 -4 -17 -4q-63 0 -102.5 36.5t-47.5 93.5q-13 -30 -34 -54.5 t-47.5 -41t-57 -25.5t-61.5 -9q-68 0 -123 23.5t-94.5 64t-61 95.5t-21.5 117z" />
<glyph unicode="v" horiz-adv-x="738" d="M20 870l10 10h80l10 -10l199 -730q6 -21 19.5 -30.5t30.5 -9.5t30.5 9.5t19.5 30.5l199 730l10 10h80l10 -10l-199 -730q-8 -29 -21.5 -54.5t-32.5 -44.5t-43.5 -30t-52.5 -11q-29 0 -53 11t-43 30t-32.5 44.5t-21.5 54.5z" />
<glyph unicode="w" horiz-adv-x="1080" d="M90 250v620l10 10h80l10 -10v-620q0 -31 12 -58.5t32 -47.5t47.5 -32t58.5 -12t58.5 12t47.5 32t32 47.5t12 58.5v620l10 10h80l10 -10v-620q0 -31 12 -58.5t32 -47.5t47.5 -32t58.5 -12q30 0 57 11t47 30.5t32.5 46t13.5 56.5v626l10 10h80l10 -10v-620 q0 -52 -19.5 -97.5t-53.5 -79.5t-79.5 -53.5t-97.5 -19.5q-61 0 -113 30.5t-87 79.5q-34 -49 -86 -79.5t-114 -30.5q-52 0 -97.5 19.5t-79.5 53.5t-53.5 79.5t-19.5 97.5z" />
<glyph unicode="x" horiz-adv-x="722" d="M61 200q0 39 11 76t31 69.5t48.5 59t64.5 45.5q-36 19 -64.5 45.5t-48.5 59t-31 69.5t-11 76v170l10 10h80l10 -10v-170q0 -42 15.5 -78.5t42.5 -63.5t63.5 -42.5t78.5 -15.5q43 1 79.5 17.5t63.5 43.5t42 62.5t15 76.5q0 7 -1 26t-2.5 42.5t-4 48t-5.5 43.5l10 10 q30 4 47.5 6t26.5 3q11 1 14 1q4 -19 6.5 -43.5t4.5 -50t3 -48.5t1 -38q0 -39 -11 -76t-31 -69.5t-48.5 -59t-64.5 -45.5q36 -19 64.5 -45.5t48.5 -59t31 -69.5t11 -76v-190l-10 -10h-80l-10 10v190q0 40 -16 76t-43.5 63t-64 43t-76.5 18q-47 -2 -84 -18t-62.5 -43 t-39.5 -63t-14 -76q0 -8 1 -30t2.5 -49t4 -54.5t5.5 -46.5l-10 -10q-30 -4 -47.5 -6t-26.5 -3q-11 -1 -14 -1q-4 21 -6.5 49t-4.5 56.5t-3 54t-1 40.5z" />
<glyph unicode="y" horiz-adv-x="800" d="M100 -190l44 18q17 7 30 13t14 6l7 -4q9 -31 29.5 -57.5t48 -45.5t60.5 -29.5t67 -10.5q42 0 78.5 15.5t63.5 42.5t42.5 63.5t15.5 78.5v176q-40 -35 -91 -55.5t-109 -20.5q-62 0 -117 23.5t-95.5 64t-64 95.5t-23.5 117v400q0 15 1 38t3 48.5t4.5 50t6.5 43.5q3 0 14 -1 q9 -1 26.5 -3t47.5 -6l10 -10q-3 -19 -5.5 -43.5t-4 -48t-2.5 -42.5t-1 -26v-400q0 -42 15.5 -78.5t42.5 -63.5t63.5 -42.5t78.5 -15.5q40 0 76 15t63 41t43 61t18 75v578l10 10h80l10 -10v-970q0 -62 -23.5 -117t-64 -95.5t-95.5 -64t-117 -23.5q-50 0 -98 15.5t-88 43.5 t-70 66.5t-44 84.5z" />
<glyph unicode="z" horiz-adv-x="687" d="M45 200q0 45 24.5 84t63.5 74t88 68.5t99 68.5q43 30 84 57.5t72 52.5t50 48.5t19 46.5q0 41 -29.5 60.5t-70.5 19.5q-57 0 -146 -1.5t-196 -10.5l-8 4v98q56 4 104 6t90 3t80 1h76q41 0 77.5 -12.5t63.5 -36t43 -57t16 -74.5t-24.5 -78t-63.5 -71.5t-87.5 -66.5 t-96.5 -64q-45 -29 -86 -57.5t-72.5 -56t-50.5 -54.5t-19 -52q0 -42 29 -71t71 -29h73t98 1.5t110.5 3.5t110.5 7l8 -4v-98q-56 -4 -111.5 -6t-107 -3t-98 -1h-83.5q-41 0 -77.5 16t-63.5 43t-43 63.5t-16 77.5z" />
<glyph unicode="{" horiz-adv-x="460" d="M50 510v80l10 10q20 1 38 9t32 21.5t22 31.5t8 38v300q0 41 16 77.5t43 63.5t63.5 43t77.5 16q20 0 37 -3t31 -8v-97h-10q-12 5 -26.5 6.5t-31.5 1.5q-42 0 -71 -29t-29 -71v-300q0 -45 -21 -84t-59 -66q38 -28 59 -66.5t21 -83.5v-300q0 -42 29 -71t71 -29 q17 0 31.5 1.5t26.5 6.5h10v-97q-14 -5 -31 -8t-37 -3q-41 0 -77.5 16t-63.5 43t-43 63.5t-16 77.5v300q0 42 -29 71t-71 29z" />
<glyph unicode="|" horiz-adv-x="300" d="M100 -90v1280l10 10h80l10 -10v-1280l-10 -10h-80z" />
<glyph unicode="}" horiz-adv-x="460" d="M32 8h10q12 -5 26.5 -6.5t31.5 -1.5q42 0 71 29t29 71v300q0 45 21 83.5t59 66.5q-38 27 -59 66t-21 84v300q0 42 -29 71t-71 29q-17 0 -31.5 -1.5t-26.5 -6.5h-10v97q14 5 31 8t37 3q41 0 77.5 -16t63.5 -43t43 -63.5t16 -77.5v-300q0 -20 8 -38t22 -31.5t32 -21.5 t38 -9l10 -10v-80l-10 -10q-42 0 -71 -29t-29 -71v-300q0 -41 -16 -77.5t-43 -63.5t-63.5 -43t-77.5 -16q-20 0 -37 3t-31 8v97z" />
<glyph unicode="~" horiz-adv-x="850" d="M50 655q0 46 17.5 87t48.5 72t71.5 48.5t87.5 17.5q31 0 59 -13.5t53.5 -33.5t49.5 -43t47.5 -43t47 -33.5t48.5 -13.5q26 0 48.5 10t39.5 27t27 39.5t10 48.5l10 10h80l10 -10q0 -47 -17.5 -87.5t-48.5 -71.5t-72 -48.5t-87 -17.5q-33 0 -63 13.5t-57.5 33.5t-52.5 43 t-48.5 43t-44 33.5t-39.5 13.5q-26 0 -48.5 -10t-39.5 -27t-27 -39.5t-10 -48.5l-10 -10h-80z" />
<glyph unicode="&#xad;" horiz-adv-x="700" d="M50 460v80l10 10h580l10 -10v-80l-10 -10h-580z" />
<glyph unicode="&#xde;" horiz-adv-x="1250" d="M70 674q36 95 120.5 150.5t209.5 55.5q62 0 117 -23.5t95.5 -64t64 -95.5t23.5 -117v-280q0 -42 11.5 -78.5t34 -63.5t55 -42.5t74.5 -15.5q40 0 72 15t54 40.5t34.5 60.5t14.5 75v579l10 10h80l10 -10v-820q0 -62 -19.5 -117t-55.5 -95.5t-87 -64t-113 -23.5 q-52 0 -100 17v102l8 3q41 -22 92 -22q42 0 74.5 15.5t55 42.5t34 63.5t11.5 78.5v51q-35 -50 -76 -75.5t-99 -25.5q-62 0 -113 23.5t-87 64t-55.5 95.5t-19.5 117v280q0 42 -15.5 78.5t-42.5 63.5t-63.5 42.5t-78.5 15.5q-83 0 -134.5 -24.5t-85.5 -81.5q7 -19 11.5 -41 t6 -45t2 -46t0.5 -42v-350q0 -21 14.5 -35.5t35.5 -14.5q17 0 31.5 1.5t26.5 6.5h10v-97q-14 -5 -31 -8t-37 -3q-31 0 -58.5 12t-47.5 32t-32 47.5t-12 58.5v350q0 99 -30 174z" />
<glyph unicode="&#xe0d;" horiz-adv-x="1250" d="M70 674q36 95 120.5 150.5t209.5 55.5q62 0 117 -23.5t95.5 -64t64 -95.5t23.5 -117v-280q0 -42 11.5 -78.5t34 -63.5t55 -42.5t74.5 -15.5q40 0 72 15t54 40.5t34.5 60.5t14.5 75v579l10 10h80l10 -10v-820q0 -62 -19.5 -117t-55.5 -95.5t-87 -64t-113 -23.5 q-52 0 -100 17v102l8 3q41 -22 92 -22q42 0 74.5 15.5t55 42.5t34 63.5t11.5 78.5v51q-35 -50 -76 -75.5t-99 -25.5q-62 0 -113 23.5t-87 64t-55.5 95.5t-19.5 117v280q0 42 -15.5 78.5t-42.5 63.5t-63.5 42.5t-78.5 15.5q-83 0 -134.5 -24.5t-85.5 -81.5q7 -19 11.5 -41 t6 -45t2 -46t0.5 -42v-350q0 -21 14.5 -35.5t35.5 -14.5q17 0 31.5 1.5t26.5 6.5h10v-97q-14 -5 -31 -8t-37 -3q-31 0 -58.5 12t-47.5 32t-32 47.5t-12 58.5v350q0 99 -30 174z" />
<glyph unicode="&#xff;" horiz-adv-x="1310" d="M80 575q0 119 45.5 223.5t123.5 182.5t182.5 123.5t223.5 45.5t223.5 -45.5t182.5 -123.5t123.5 -182.5t45.5 -223.5t-45.5 -223.5t-123.5 -182.5t-182.5 -123.5t-223.5 -45.5t-223.5 45.5t-182.5 123.5t-123.5 182.5t-45.5 223.5zM177 678q0 -99 37.5 -186t102.5 -152 t152 -102.5t186 -37.5t186 37.5t152 102.5t102.5 152t37.5 186q-29 -78 -79.5 -147t-114 -120t-136.5 -81t-148 -30t-148 30t-136.5 81t-114 120t-79.5 147zM255 800q0 -42 29 -71t71 -29t71 29t29 71t-29 71t-71 29t-71 -29t-29 -71zM855 800q0 -42 29 -71t71 -29t71 29 t29 71t-29 71t-71 29t-71 -29t-29 -71z" />
<glyph unicode="&#x152;" d="M-450 1107v83q11 5 27 7.5t23 2.5q42 0 66 -29t24 -71q0 -10 10 -10h200l11 -11v-68l-11 -11h-200q-42 0 -71 29t-29 71q0 8 -6 10.5t-14 2.5q-5 0 -11.5 -1.5t-13.5 -5.5z" />
<glyph unicode="&#xf70b;" d="M-450 1107v83q11 5 27 7.5t23 2.5q42 0 66 -29t24 -71q0 -10 10 -10h200l11 -11v-68l-11 -11h-200q-42 0 -71 29t-29 71q0 8 -6 10.5t-14 2.5q-5 0 -11.5 -1.5t-13.5 -5.5z" />
<glyph unicode="&#x153;" d="M-600 1357v83q11 5 27 7.5t23 2.5q42 0 66 -29t24 -71q0 -10 10 -10h200l11 -11v-68l-11 -11h-200q-42 0 -71 29t-29 71q0 8 -6 10.5t-14 2.5q-5 0 -11.5 -1.5t-13.5 -5.5z" />
<glyph unicode="&#xf714;" d="M-600 1357v83q11 5 27 7.5t23 2.5q42 0 66 -29t24 -71q0 -10 10 -10h200l11 -11v-68l-11 -11h-200q-42 0 -71 29t-29 71q0 8 -6 10.5t-14 2.5q-5 0 -11.5 -1.5t-13.5 -5.5z" />
<glyph unicode="&#x160;" d="M-640 1025q0 26 10 48.5t27 39.5t39.5 27t48.5 10h215l10 -10v-70l-10 -10h-215q-14 0 -24.5 -10.5t-10.5 -24.5q0 -6 2 -10l-2 -6l-84 -18q-6 18 -6 34z" />
<glyph unicode="&#xf709;" d="M-640 1025q0 26 10 48.5t27 39.5t39.5 27t48.5 10h215l10 -10v-70l-10 -10h-215q-14 0 -24.5 -10.5t-10.5 -24.5q0 -6 2 -10l-2 -6l-84 -18q-6 18 -6 34z" />
<glyph unicode="&#x161;" d="M-711 1085q0 24 9 44.5t25 36.5t36.5 25t44.5 9h335l11 -11v-58l-11 -11h-335q-14 0 -24.5 -10.5t-10.5 -24.5t10.5 -24.5t24.5 -10.5q16 0 24 6.5t11 17.5l6 6h68l6 -6q2 -9 11.5 -16.5t23.5 -7.5q12 0 19 4.5t12 12.5h7l61 -33l1 -4q-14 -26 -40.5 -43t-59.5 -17 q-22 0 -43.5 11.5t-32.5 23.5q-11 -12 -32 -23.5t-42 -11.5q-24 0 -44.5 9t-36.5 25t-25 36.5t-9 44.5z" />
<glyph unicode="&#xf712;" d="M-711 1085q0 24 9 44.5t25 36.5t36.5 25t44.5 9h335l11 -11v-58l-11 -11h-335q-14 0 -24.5 -10.5t-10.5 -24.5t10.5 -24.5t24.5 -10.5q16 0 24 6.5t11 17.5l6 6h68l6 -6q2 -9 11.5 -16.5t23.5 -7.5q12 0 19 4.5t12 12.5h7l61 -33l1 -4q-14 -26 -40.5 -43t-59.5 -17 q-22 0 -43.5 11.5t-32.5 23.5q-11 -12 -32 -23.5t-42 -11.5q-24 0 -44.5 9t-36.5 25t-25 36.5t-9 44.5z" />
<glyph unicode="&#x178;" d="M-540 1265q0 26 10 48.5t27 39.5t39.5 27t48.5 10h215l10 -10v-70l-10 -10h-215q-14 0 -24.5 -10.5t-10.5 -24.5q0 -6 2 -10l-2 -6l-84 -18q-6 18 -6 34z" />
<glyph unicode="&#xf717;" d="M-540 1265q0 26 10 48.5t27 39.5t39.5 27t48.5 10h215l10 -10v-70l-10 -10h-215q-14 0 -24.5 -10.5t-10.5 -24.5q0 -6 2 -10l-2 -6l-84 -18q-6 18 -6 34z" />
<glyph unicode="&#x17d;" d="M-345 1055v70l10 10h55v55l10 10h70l10 -10v-55h55l10 -10v-70l-10 -10h-55v-55l-10 -10h-70l-10 10v55h-55z" />
<glyph unicode="&#xf70d;" d="M-345 1055v70l10 10h55v55l10 10h70l10 -10v-55h55l10 -10v-70l-10 -10h-55v-55l-10 -10h-70l-10 10v55h-55z" />
<glyph unicode="&#x17e;" d="M-432 1325v70l10 10h55v55l10 10h70l10 -10v-55h55l10 -10v-70l-10 -10h-55v-55l-10 -10h-70l-10 10v55h-55z" />
<glyph unicode="&#xf716;" d="M-432 1325v70l10 10h55v55l10 10h70l10 -10v-55h55l10 -10v-70l-10 -10h-55v-55l-10 -10h-70l-10 10v55h-55z" />
<glyph unicode="&#x192;" d="M-767 1059v10q53 35 114 54t136 19q30 0 56 -8q11 29 36.5 47.5t57.5 18.5q42 0 71 -29t29 -71t-29 -71t-71 -29q-19 0 -36 6.5t-35 14.5t-37.5 14.5t-41.5 6.5q-55 0 -106 -14.5t-90 -37.5h-9zM-407 1100q0 -17 11.5 -28.5t28.5 -11.5t28.5 11.5t11.5 28.5t-11.5 28.5 t-28.5 11.5t-28.5 -11.5t-11.5 -28.5z" />
<glyph unicode="&#xf703;" d="M-767 1059v10q53 35 114 54t136 19q30 0 56 -8q11 29 36.5 47.5t57.5 18.5q42 0 71 -29t29 -71t-29 -71t-71 -29q-19 0 -36 6.5t-35 14.5t-37.5 14.5t-41.5 6.5q-55 0 -106 -14.5t-90 -37.5h-9zM-407 1100q0 -17 11.5 -28.5t28.5 -11.5t28.5 11.5t11.5 28.5t-11.5 28.5 t-28.5 11.5t-28.5 -11.5t-11.5 -28.5z" />
<glyph unicode="&#x2c6;" d="M-680 1025q0 26 10 48.5t27 39.5t39.5 27t48.5 10q25 0 49 -12t36 -28q13 16 36.5 28t48.5 12q22 0 45 -15v65l10 10h60l10 -10v-200l-10 -10h-60l-10 10v25q0 19 -13 32t-32 13q-18 0 -30.5 -12.5t-14.5 -32.5l-10 -10h-60l-10 10q0 19 -13 32t-32 13t-32 -13t-13 -32 q0 -16 12 -30l-61 -46l-6 1q-25 31 -25 75z" />
<glyph unicode="&#xf707;" d="M-680 1025q0 26 10 48.5t27 39.5t39.5 27t48.5 10q25 0 49 -12t36 -28q13 16 36.5 28t48.5 12q22 0 45 -15v65l10 10h60l10 -10v-200l-10 -10h-60l-10 10v25q0 19 -13 32t-32 13q-18 0 -30.5 -12.5t-14.5 -32.5l-10 -10h-60l-10 10q0 19 -13 32t-32 13t-32 -13t-13 -32 q0 -16 12 -30l-61 -46l-6 1q-25 31 -25 75z" />
<glyph unicode="&#x2dc;" d="M-719 1150q0 19 3 32.5t8 27.5h97v-10q-5 -12 -6.5 -21t-1.5 -26q0 -25 14.5 -44t35.5 -19h269l11 -11v-68l-11 -11h-269q-31 0 -58.5 8t-47.5 26t-32 46.5t-12 69.5z" />
<glyph unicode="&#xf710;" d="M-719 1150q0 19 3 32.5t8 27.5h97v-10q-5 -12 -6.5 -21t-1.5 -26q0 -25 14.5 -44t35.5 -19h269l11 -11v-68l-11 -11h-269q-31 0 -58.5 8t-47.5 26t-32 46.5t-12 69.5z" />
<glyph unicode="&#xe01;" horiz-adv-x="800" d="M70 674q36 95 120.5 150.5t209.5 55.5q62 0 117 -23.5t95.5 -64t64 -95.5t23.5 -117v-570l-10 -10h-80l-10 10v570q0 42 -15.5 78.5t-42.5 63.5t-63.5 42.5t-78.5 15.5q-83 0 -134.5 -24.5t-85.5 -81.5q7 -19 11.5 -41t6 -45t2 -46t0.5 -42v-490l-10 -10h-80l-10 10v490 q0 99 -30 174z" />
<glyph unicode="&#xe02;" horiz-adv-x="780" d="M80 300q0 61 15 102.5t37 72.5t48 56.5t48 53t37 61.5t15 84q0 21 -14.5 35.5t-35.5 14.5q-28 0 -48.5 -10.5t-41.5 -24.5h-10v95q20 19 45 29.5t55 10.5q31 0 58.5 -12t47.5 -32t32 -47.5t12 -58.5q0 -58 -15 -99.5t-37 -74.5t-48 -60t-48 -56t-37 -62t-15 -78 q0 -42 15.5 -78.5t42.5 -63.5t63.5 -42.5t78.5 -15.5t78.5 15.5t63.5 42.5t42.5 63.5t15.5 78.5v570l10 10h80l10 -10v-570q0 -62 -23.5 -117t-64 -95.5t-95.5 -64t-117 -23.5t-117 23.5t-95.5 64t-64 95.5t-23.5 117z" />
<glyph unicode="&#xe03;" horiz-adv-x="801" />
<glyph unicode="&#xe04;" horiz-adv-x="830" d="M100 10v555q0 65 24.5 122.5t67.5 100t100.5 67.5t122.5 25t122.5 -25t100 -67.5t67.5 -100t25 -122.5v-555l-10 -10h-80l-10 10v555q0 45 -17 84t-46 68t-68 46t-84 17t-84 -17t-68 -46t-46 -68t-17 -84v-225q42 57 97 83.5t118 26.5q20 0 37 -3t31 -8v-97h-10 q-12 5 -26.5 6.5t-31.5 1.5q-45 0 -84 -17t-68 -46t-46 -68t-17 -84v-125l-10 -10h-80z" />
<glyph unicode="&#xe05;" horiz-adv-x="991" />
<glyph unicode="&#xe06;" horiz-adv-x="815" d="M48 4v97h10l7 -1q21 0 35.5 14.5t14.5 35.5v150q0 61 22 102.5t55.5 72.5t72.5 56.5t72.5 53t55.5 61.5t22 84q0 21 -14.5 35.5t-35.5 14.5t-35.5 -14.5t-14.5 -35.5v-24l-6 -6h-88l-6 6v28q0 20 -15 33t-35 13q-28 0 -48.5 -10.5t-41.5 -24.5h-10v95q20 19 45 29.5 t55 10.5q29 0 56 -14.5t44 -35.5q17 21 44 35.5t56 14.5q31 0 58.5 -12t47.5 -32t32 -47.5t12 -58.5q0 -58 -22 -99.5t-55.5 -74.5t-72.5 -60t-72.5 -56t-55.5 -62t-22 -78q0 -42 15.5 -78.5t42.5 -63.5t63.5 -42.5t78.5 -15.5t78.5 15.5t63.5 42.5t42.5 63.5t15.5 78.5v570 l10 10h80l10 -10v-570q0 -62 -21.5 -117t-61 -95.5t-95 -64t-122.5 -23.5q-63 0 -116.5 35t-83.5 95q0 -30 -12 -54t-32 -41t-47.5 -26t-58.5 -9q-7 0 -17 4z" />
<glyph unicode="&#xe07;" horiz-adv-x="650" d="M60 60v107l8 4q54 -38 96 -54.5t86 -16.5q42 0 78.5 15.5t63.5 42.5t42.5 63.5t15.5 78.5v330q0 31 -12 58.5t-32 47.5t-47.5 32t-58.5 12q-17 0 -31.5 -1.5t-26.5 -6.5h-10v97q14 5 31 8t37 3q52 0 97.5 -19.5t79.5 -53.5t53.5 -79.5t19.5 -97.5v-330q0 -62 -23.5 -117 t-64 -95.5t-95.5 -64t-117 -23.5q-24 0 -45.5 2.5t-43.5 9t-46.5 18t-54.5 30.5z" />
<glyph unicode="&#xe08;" horiz-adv-x="739" d="M46 646q11 50 38 93t66 74.5t87 49t102 17.5q62 0 117 -23.5t95.5 -64t64 -95.5t23.5 -117v-380q0 -41 -16 -77.5t-43 -63.5t-63.5 -43t-77.5 -16t-77.5 16t-63.5 43t-43 63.5t-16 77.5v80q0 21 -14.5 35.5t-35.5 14.5q-8 0 -16 -1.5t-15 -4.5h-10v97q6 3 15 6t26 3 q35 0 63 -12t47.5 -32t29.5 -47.5t10 -58.5v-80q0 -42 29 -71t71 -29t71 29t29 71v380q0 42 -15.5 78.5t-42.5 63.5t-63.5 42.5t-78.5 15.5q-38 0 -71.5 -13t-60 -35.5t-43.5 -53.5t-23 -67l-10 -2z" />
<glyph unicode="&#xe09;" horiz-adv-x="752" d="M44 646q11 50 38 93t66 74.5t87 49t102 17.5q62 0 117 -23.5t95.5 -64t64 -95.5t23.5 -117v-430q0 -21 14.5 -35.5t35.5 -14.5l7 1h10v-97q-10 -4 -17 -4q-31 0 -58.5 9t-47.5 25t-32 38t-12 48q-8 -28 -25 -50.5t-39.5 -38t-47.5 -23.5t-48 -8q-52 0 -96 19.5t-76 53.5 t-50 79.5t-18 97.5v30q0 21 -7.5 35t-28.5 14q-8 0 -16 -1.5t-15 -4.5h-10v97q6 3 15 6t26 3q35 0 61 -11.5t42.5 -32t24.5 -47.5t8 -58v-30q0 -31 10 -58.5t28.5 -47.5t44.5 -32t57 -12t60 12t51 32t35.5 47.5t13.5 58.5v330q0 42 -15.5 78.5t-42.5 63.5t-63.5 42.5 t-78.5 15.5q-38 0 -71.5 -13t-60 -35.5t-43.5 -53.5t-23 -67l-6 -4z" />
<glyph unicode="&#xe0a;" horiz-adv-x="780" d="M80 300q0 61 15 102.5t37 72.5t48 56.5t48 53t37 61.5t15 84q0 21 -14.5 35.5t-35.5 14.5q-28 0 -48.5 -10.5t-41.5 -24.5h-10v95q20 19 45 29.5t55 10.5q31 0 58.5 -12t47.5 -32t32 -47.5t12 -58.5q0 -58 -15 -99.5t-37 -74.5t-48 -60t-48 -56t-37 -62t-15 -78 q0 -42 15.5 -78.5t42.5 -63.5t63.5 -42.5t78.5 -15.5t78.5 15.5t63.5 42.5t42.5 63.5t15.5 78.5q0 32 -12.5 67.5t-35 65t-53.5 48.5t-69 19v79l10 21q80 9 120 64t40 136q0 7 -1 17.5t-3 22t-4.5 22.5t-4.5 18l10 10q30 4 47.5 6t26.5 3q11 1 14 1q6 -17 10.5 -45t4.5 -55 q0 -79 -36.5 -144.5t-97.5 -105.5q61 -41 97.5 -106.5t36.5 -143.5q0 -62 -23.5 -117t-64 -95.5t-95.5 -64t-117 -23.5t-117 23.5t-95.5 64t-64 95.5t-23.5 117z" />
<glyph unicode="&#xe0b;" horiz-adv-x="800" d="M50 745v95q20 19 45 29.5t55 10.5q29 0 56 -14.5t44 -35.5q17 21 44 35.5t56 14.5q31 0 58.5 -12t47.5 -32t32 -47.5t12 -58.5q0 -58 -22 -99.5t-55.5 -74.5t-72.5 -60t-72.5 -56t-55.5 -62t-22 -78q0 -42 15.5 -78.5t42.5 -63.5t63.5 -42.5t78.5 -15.5t78.5 15.5 t63.5 42.5t42.5 63.5t15.5 78.5q0 32 -6 57.5t-18 48t-31 45t-45 49.5v79l14 21q32 20 49.5 41t25.5 45t9.5 52t1.5 62q0 7 -1 17.5t-3 22t-4.5 22.5t-4.5 18l10 10q30 4 47.5 6t26.5 3q11 1 14 1q6 -17 10.5 -45t4.5 -55q0 -39 -1.5 -74t-11 -66.5t-30 -60.5t-57.5 -56 q27 -26 46 -53t31 -56t17.5 -62t5.5 -72q0 -62 -23.5 -117t-64 -95.5t-95.5 -64t-117 -23.5t-117 23.5t-95.5 64t-64 95.5t-23.5 117q0 61 22 102.5t55.5 72.5t72.5 56.5t72.5 53t55.5 61.5t22 84q0 21 -14.5 35.5t-35.5 14.5t-35.5 -14.5t-14.5 -35.5v-24l-6 -6h-88l-6 6 v28q0 20 -15 33t-35 13q-28 0 -48.5 -10.5t-41.5 -24.5h-10z" />
<glyph unicode="&#xe0c;" horiz-adv-x="1250" d="M70 674q36 95 120.5 150.5t209.5 55.5q62 0 117 -23.5t95.5 -64t64 -95.5t23.5 -117v-280q0 -30 15.5 -65t41 -65t57.5 -50t66 -20q42 0 73.5 15.5t53 42.5t32.5 63.5t11 78.5v570l10 10h80l10 -10v-570q0 -62 -17 -117t-50.5 -95.5t-84.5 -64t-118 -23.5q-63 0 -105 33 t-75 92q0 -30 -12 -53.5t-32 -39t-47.5 -24t-58.5 -8.5q-7 0 -17 4v97h10l7 -1q21 0 35.5 14.5t14.5 35.5v430q0 42 -15.5 78.5t-42.5 63.5t-63.5 42.5t-78.5 15.5q-83 0 -134.5 -24.5t-85.5 -81.5q7 -19 11.5 -41t6 -45t2 -46t0.5 -42v-350q0 -21 14.5 -35.5t35.5 -14.5 q17 0 31.5 1.5t26.5 6.5h10v-97q-14 -5 -31 -8t-37 -3q-31 0 -58.5 12t-47.5 32t-32 47.5t-12 58.5v350q0 99 -30 174z" />
<glyph unicode="&#xe0e;" horiz-adv-x="815" d="M48 4v97h10l7 -1q21 0 35.5 14.5t14.5 35.5v350q0 99 -30 174q36 95 120.5 150.5t209.5 55.5q62 0 117 -23.5t95.5 -64t64 -95.5t23.5 -117v-705q0 -36 -13.5 -68t-37.5 -56t-56 -37.5t-68 -13.5q-37 0 -71.5 21t-53.5 49q-19 -28 -53.5 -49t-71.5 -21t-69 14t-56 38 l66 68h8q22 -20 51 -20q32 0 53.5 21.5t21.5 53.5v19l6 6h88l6 -6v-19q2 -34 23.5 -54.5t51.5 -20.5q32 0 53.5 21.5t21.5 53.5v705q0 42 -15.5 78.5t-42.5 63.5t-63.5 42.5t-78.5 15.5q-83 0 -134.5 -24.5t-85.5 -81.5q7 -19 11.5 -41t6 -45t2 -46t0.5 -42v-350 q0 -31 -12 -58.5t-32 -47.5t-47.5 -32t-58.5 -12q-7 0 -17 4z" />
<glyph unicode="&#xe0f;" horiz-adv-x="815" d="M48 4v97h10l7 -1q21 0 35.5 14.5t14.5 35.5v350q0 99 -30 174q36 95 120.5 150.5t209.5 55.5q62 0 117 -23.5t95.5 -64t64 -95.5t23.5 -117v-730q0 -31 -12 -58.5t-32 -47.5t-47.5 -32t-58.5 -12q-15 0 -29.5 5t-28 13.5t-24.5 19.5t-18 22q-7 -11 -18 -22t-24.5 -19.5 t-28 -13.5t-29.5 -5t-29.5 5t-28 13.5t-24.5 19.5t-18 22q-7 -11 -18 -22t-24.5 -19.5t-28 -13.5t-29.5 -5q-30 0 -56.5 10.5t-46.5 29.5l69 70h5q6 -4 13.5 -7t15.5 -3q21 0 35.5 14.5t14.5 35.5v15l6 6h88l6 -6v-15q2 -23 16 -36.5t34 -13.5t34 13t16 33v19l6 6h88l6 -6 v-19q2 -20 16 -33t34 -13q21 0 35.5 14.5t14.5 35.5v730q0 42 -15.5 78.5t-42.5 63.5t-63.5 42.5t-78.5 15.5q-83 0 -134.5 -24.5t-85.5 -81.5q7 -19 11.5 -41t6 -45t2 -46t0.5 -42v-350q0 -31 -12 -58.5t-32 -47.5t-47.5 -32t-58.5 -12q-7 0 -17 4z" />
<glyph unicode="&#xe10;" horiz-adv-x="730" d="M25 -213l71 72q15 -12 32 -12q21 0 35.5 14.5t14.5 35.5v15l6 6h88l6 -6v-15q2 -23 16 -36.5t34 -13.5t34 13t16 33v19l6 6h88l6 -6v-19q2 -20 16 -33t34 -13q21 0 35.5 14.5t14.5 35.5q0 17 -12 32l72 71q19 -20 29.5 -46.5t10.5 -56.5q0 -31 -12 -58.5t-32 -47.5 t-47.5 -32t-58.5 -12q-15 0 -29.5 5t-28 13.5t-24.5 19.5t-18 22q-7 -11 -18 -22t-24.5 -19.5t-28 -13.5t-29.5 -5t-29.5 5t-28 13.5t-24.5 19.5t-18 22q-7 -11 -18 -22t-24.5 -19.5t-28 -13.5t-29.5 -5q-30 0 -56.5 10.5t-46.5 29.5zM52 706q18 39 46 71t63 55t77 35.5 t87 12.5q116 0 204 5t156 34l20 -94q-12 -9 -30.5 -16.5t-41 -12.5t-48 -8t-50.5 -3q42 -43 66 -92t24 -113v-380q0 -41 -16 -77.5t-43 -63.5t-63.5 -43t-77.5 -16t-77.5 16t-63.5 43t-43 63.5t-16 77.5v100q0 21 -14.5 35.5t-35.5 14.5q-8 0 -16 -1.5t-15 -4.5h-10v97 q6 3 15 6t26 3q35 0 63 -12t47.5 -32t29.5 -47.5t10 -58.5v-100q0 -42 29 -71t71 -29t71 29t29 71v380q0 42 -15.5 78.5t-42.5 63.5t-63.5 42.5t-78.5 15.5q-59 0 -106.5 -30t-72.5 -78l-7 -3z" />
<glyph unicode="&#xe11;" horiz-adv-x="865" d="M36 766v100q40 14 79 14q29 0 56 -14.5t44 -35.5q17 21 44 35.5t56 14.5q32 0 59.5 -14.5t47.5 -35.5q25 26 61.5 38t81.5 12q41 0 77.5 -16t63.5 -43t43 -63.5t16 -77.5v-670l-10 -10h-80l-10 10v670q0 42 -29 71t-71 29q-41 0 -62 -11t-38 -39q0 -58 -18.5 -99.5 t-46.5 -74.5t-60 -60t-60 -56t-46.5 -62t-18.5 -78v-290l-10 -10h-80l-10 10v290q0 61 18.5 102.5t46.5 72.5t60 56.5t60 53t46.5 61.5t18.5 84q0 21 -14.5 35.5t-35.5 14.5t-35.5 -14.5t-14.5 -35.5v-24l-6 -6h-88l-6 6v24q0 20 -15 35t-35 15q-14 0 -33 -3t-36 -11h-10z " />
<glyph unicode="&#xe12;" horiz-adv-x="1298" d="M78 436q0 91 16 172t47.5 141.5t78 95.5t108.5 35q37 0 66 -15.5t54 -54.5q20 32 56.5 51t73.5 19q36 0 67.5 -13.5t54 -37.5t35.5 -56t13 -68v-405q0 -30 16 -65t41.5 -65t58 -50t66.5 -20q42 0 73.5 15.5t52.5 42.5t31.5 63.5t10.5 78.5v570l10 10h80l10 -10v-570 q0 -62 -16.5 -117t-50 -95.5t-84 -64t-117.5 -23.5q-63 0 -103.5 33t-78.5 92q0 -30 -12 -53.5t-32 -39t-47.5 -24t-58.5 -8.5q-7 0 -17 4v97h10l7 -1q21 0 35.5 14.5t14.5 35.5v555q0 32 -19 53.5t-51 21.5t-56 -21.5t-24 -53.5v-49l-6 -6h-88l-6 6v49q0 32 -19 53.5 t-51 21.5q-35 0 -63 -27.5t-47.5 -74t-29.5 -109.5t-10 -133q0 -71 12.5 -132t42 -106.5t77 -71.5t118.5 -26q21 0 37 3.5t30 9.5h10v-96q-36 -17 -77 -17q-91 0 -157 34t-109 93t-63.5 138.5t-20.5 170.5z" />
<glyph unicode="&#xe13;" horiz-adv-x="1265" d="M70 674q36 95 120.5 150.5t209.5 55.5q62 0 117 -23.5t95.5 -64t64 -95.5t23.5 -117v-280q0 -42 9.5 -78.5t29 -63.5t49.5 -42.5t72 -15.5t76.5 17t60 45.5t39.5 64t14 73.5v570l10 10h80l10 -10v-720q0 -21 14.5 -35.5t35.5 -14.5l7 1h10v-97q-10 -4 -17 -4 q-31 0 -58.5 9.5t-47.5 26t-32 39.5t-12 49q-26 -56 -76.5 -90t-113.5 -34q-68 0 -117 23.5t-80.5 64t-47 95.5t-15.5 117v280q0 42 -15.5 78.5t-42.5 63.5t-63.5 42.5t-78.5 15.5q-83 0 -134.5 -24.5t-85.5 -81.5q7 -19 11.5 -41t6 -45t2 -46t0.5 -42v-350 q0 -21 14.5 -35.5t35.5 -14.5q17 0 31.5 1.5t26.5 6.5h10v-97q-14 -5 -31 -8t-37 -3q-31 0 -58.5 12t-47.5 32t-32 47.5t-12 58.5v350q0 99 -30 174z" />
<glyph unicode="&#xe14;" horiz-adv-x="818" d="M68 436q0 91 20.5 172t63.5 141.5t109 95.5t157 35q62 0 117 -23.5t95.5 -64t64 -95.5t23.5 -117v-570l-10 -10h-80l-10 10v570q0 42 -15.5 78.5t-42.5 63.5t-63.5 42.5t-78.5 15.5q-71 0 -118.5 -27.5t-77 -74t-42 -109.5t-12.5 -133q0 -71 12.5 -132t42 -106.5 t77 -71.5t118.5 -26q28 0 49 5.5t41 16.5h10v-98q-42 -24 -100 -24q-91 0 -157 34t-109 93t-63.5 138.5t-20.5 170.5z" />
<glyph unicode="&#xe15;" horiz-adv-x="838" d="M68 436q0 91 16 172t47.5 141.5t78 95.5t108.5 35q37 0 66 -15.5t54 -54.5q20 32 56.5 51t73.5 19q36 0 67.5 -13.5t54 -37.5t35.5 -56t13 -68v-695l-10 -10h-80l-10 10v695q0 32 -19 53.5t-51 21.5t-56 -21.5t-24 -53.5v-49l-6 -6h-88l-6 6v49q0 32 -19 53.5t-51 21.5 q-35 0 -63 -27.5t-47.5 -74t-29.5 -109.5t-10 -133q0 -71 12.5 -132t42 -106.5t77 -71.5t118.5 -26q28 0 49 5.5t41 16.5h10v-98q-42 -24 -100 -24q-91 0 -157 34t-109 93t-63.5 138.5t-20.5 170.5z" />
<glyph unicode="&#xe16;" horiz-adv-x="800" d="M70 674q36 95 120.5 150.5t209.5 55.5q62 0 117 -23.5t95.5 -64t64 -95.5t23.5 -117v-570l-10 -10h-80l-10 10v570q0 42 -15.5 78.5t-42.5 63.5t-63.5 42.5t-78.5 15.5q-83 0 -134.5 -24.5t-85.5 -81.5q7 -19 11.5 -41t6 -45t2 -46t0.5 -42v-350q0 -21 14.5 -35.5 t35.5 -14.5q17 0 31.5 1.5t26.5 6.5h10v-97q-14 -5 -31 -8t-37 -3q-31 0 -58.5 12t-47.5 32t-32 47.5t-12 58.5v350q0 99 -30 174z" />
<glyph unicode="&#xe17;" horiz-adv-x="815" d="M48 779v97q10 4 17 4q31 0 58.5 -10t47.5 -27t32 -41t12 -52q30 61 83.5 95.5t116.5 34.5q67 0 122.5 -23.5t95 -64t61 -95.5t21.5 -117v-570l-10 -10h-80l-10 10v570q0 42 -15.5 78.5t-42.5 63.5t-63.5 42.5t-78.5 15.5t-78.5 -15.5t-63.5 -42.5t-42.5 -63.5 t-15.5 -78.5v-570l-10 -10h-80l-10 10v720q0 21 -14.5 35.5t-35.5 14.5l-7 -1h-10z" />
<glyph unicode="&#x2219;" horiz-adv-x="815" d="M48 779v97q10 4 17 4q31 0 58.5 -10t47.5 -27t32 -41t12 -52q30 61 83.5 95.5t116.5 34.5q67 0 122.5 -23.5t95 -64t61 -95.5t21.5 -117v-570l-10 -10h-80l-10 10v570q0 42 -15.5 78.5t-42.5 63.5t-63.5 42.5t-78.5 15.5t-78.5 -15.5t-63.5 -42.5t-42.5 -63.5 t-15.5 -78.5v-570l-10 -10h-80l-10 10v720q0 21 -14.5 35.5t-35.5 14.5l-7 -1h-10z" />
<glyph unicode="&#xe18;" horiz-adv-x="746" d="M80 640q0 49 19 93t51.5 77t76 52t93.5 18q45 -1 84 -3t75.5 -5.5t71.5 -8.5t73 -11v-98l-8 -4q-40 7 -76 13t-71.5 9.5t-71.5 5.5t-77 2q-29 0 -54.5 -11t-44.5 -30t-30 -44.5t-11 -54.5t11.5 -51.5t31 -37.5t45 -23t54.5 -8h110q52 0 97 -21t78.5 -57.5t53 -86 t19.5 -105.5q0 -52 -19.5 -97.5t-53.5 -79.5t-79.5 -53.5t-97.5 -19.5q-45 0 -86 2t-81 6t-80 10.5t-83 15.5v326l10 10h80l10 -10v-240q31 -6 58.5 -10t55 -6t55.5 -3t61 -1q31 0 58.5 12t47.5 32t32 47.5t12 58.5q0 34 -11.5 64.5t-31.5 54t-47 37.5t-58 14h-110 q-50 0 -94 16t-77 44.5t-52 69t-19 90.5z" />
<glyph unicode="&#xe19;" horiz-adv-x="830" d="M48 779v97q10 4 17 4q31 0 58.5 -10t47.5 -27t32 -41t12 -52v-450q0 -42 15.5 -78.5t42.5 -63.5t63.5 -42.5t78.5 -15.5t78.5 15.5t63.5 42.5t42.5 63.5t15.5 78.5v570l10 10h80l10 -10v-720q0 -21 14.5 -35.5t35.5 -14.5l7 1h10v-97q-10 -4 -17 -4q-31 0 -58.5 9.5 t-47.5 26t-32 39.5t-12 49q-35 -59 -86 -91.5t-114 -32.5q-68 0 -123 23.5t-94.5 64t-61 95.5t-21.5 117v430q0 21 -14.5 35.5t-35.5 14.5l-7 -1h-10z" />
<glyph unicode="&#xe1a;" horiz-adv-x="815" d="M48 779v97q10 4 17 4q31 0 58.5 -10t47.5 -27t32 -41t12 -52v-500q0 -31 12 -58.5t32 -47.5t47.5 -32t58.5 -12h100q31 0 58.5 12t47.5 32t32 47.5t12 58.5v620l10 10h80l10 -10v-620q0 -52 -19.5 -97.5t-53.5 -79.5t-79.5 -53.5t-97.5 -19.5h-100q-52 0 -97.5 19.5 t-79.5 53.5t-53.5 79.5t-19.5 97.5v480q0 21 -14.5 35.5t-35.5 14.5l-7 -1h-10z" />
<glyph unicode="&#xe1b;" horiz-adv-x="815" d="M48 779v97q10 4 17 4q31 0 58.5 -10t47.5 -27t32 -41t12 -52v-500q0 -31 12 -58.5t32 -47.5t47.5 -32t58.5 -12h100q31 0 58.5 12t47.5 32t32 47.5t12 58.5v890l10 10h80l10 -10v-890q0 -52 -19.5 -97.5t-53.5 -79.5t-79.5 -53.5t-97.5 -19.5h-100q-52 0 -97.5 19.5 t-79.5 53.5t-53.5 79.5t-19.5 97.5v480q0 21 -14.5 35.5t-35.5 14.5l-7 -1h-10z" />
<glyph unicode="&#xe1c;" horiz-adv-x="940" d="M100 210v540q0 28 12 52t32 41t47.5 27t58.5 10q7 0 17 -4v-97h-10l-7 1q-21 0 -35.5 -14.5t-14.5 -35.5v-520q0 -23 8.5 -43t23.5 -35t35 -23.5t43 -8.5q22 0 42 9t35 24t24 35t9 42v484l6 6h88l6 -6v-484q0 -23 8.5 -43t23.5 -35t35 -23.5t43 -8.5t43 8.5t35 23.5 t23.5 35t8.5 43v660l10 10h80l10 -10v-660q0 -44 -16.5 -82t-45 -66.5t-67 -45t-81.5 -16.5q-48 0 -89.5 25.5t-70.5 59.5q-29 -34 -70.5 -59.5t-89.5 -25.5q-44 0 -82 16.5t-66.5 45t-45 66.5t-16.5 82z" />
<glyph unicode="&#xe1d;" horiz-adv-x="940" d="M100 210v540q0 28 12 52t32 41t47.5 27t58.5 10q7 0 17 -4v-97h-10l-7 1q-21 0 -35.5 -14.5t-14.5 -35.5v-520q0 -23 8.5 -43t23.5 -35t35 -23.5t43 -8.5q22 0 42 9t35 24t24 35t9 42v484l6 6h88l6 -6v-484q0 -23 8.5 -43t23.5 -35t35 -23.5t43 -8.5t43 8.5t35 23.5 t23.5 35t8.5 43v930l10 10h80l10 -10v-930q0 -44 -16.5 -82t-45 -66.5t-67 -45t-81.5 -16.5q-48 0 -89.5 25.5t-70.5 59.5q-29 -34 -70.5 -59.5t-89.5 -25.5q-44 0 -82 16.5t-66.5 45t-45 66.5t-16.5 82z" />
<glyph unicode="&#xe1e;" horiz-adv-x="955" d="M48 779v97q10 4 17 4q31 0 58.5 -10t47.5 -27t32 -41t12 -52v-540q0 -23 8.5 -43t23.5 -35t35 -23.5t43 -8.5q22 0 42 9t35 24t24 35t9 42v484l6 6h88l6 -6v-484q0 -23 8.5 -43t23.5 -35t35 -23.5t43 -8.5t43 8.5t35 23.5t23.5 35t8.5 43v660l10 10h80l10 -10v-660 q0 -44 -16.5 -82t-45 -66.5t-67 -45t-81.5 -16.5q-48 0 -89.5 25.5t-70.5 59.5q-29 -34 -70.5 -59.5t-89.5 -25.5q-44 0 -82 16.5t-66.5 45t-45 66.5t-16.5 82v520q0 21 -14.5 35.5t-35.5 14.5l-7 -1h-10z" />
<glyph unicode="&#xe1f;" horiz-adv-x="955" d="M48 779v97q10 4 17 4q31 0 58.5 -10t47.5 -27t32 -41t12 -52v-540q0 -23 8.5 -43t23.5 -35t35 -23.5t43 -8.5q22 0 42 9t35 24t24 35t9 42v484l6 6h88l6 -6v-484q0 -23 8.5 -43t23.5 -35t35 -23.5t43 -8.5t43 8.5t35 23.5t23.5 35t8.5 43v930l10 10h80l10 -10v-930 q0 -44 -16.5 -82t-45 -66.5t-67 -45t-81.5 -16.5q-48 0 -89.5 25.5t-70.5 59.5q-29 -34 -70.5 -59.5t-89.5 -25.5q-44 0 -82 16.5t-66.5 45t-45 66.5t-16.5 82v520q0 21 -14.5 35.5t-35.5 14.5l-7 -1h-10z" />
<glyph unicode="&#xe20;" horiz-adv-x="815" d="M48 4v97h10l7 -1q21 0 35.5 14.5t14.5 35.5v350q0 99 -30 174q36 95 120.5 150.5t209.5 55.5q62 0 117 -23.5t95.5 -64t64 -95.5t23.5 -117v-570l-10 -10h-80l-10 10v570q0 42 -15.5 78.5t-42.5 63.5t-63.5 42.5t-78.5 15.5q-83 0 -134.5 -24.5t-85.5 -81.5 q7 -19 11.5 -41t6 -45t2 -46t0.5 -42v-350q0 -31 -12 -58.5t-32 -47.5t-47.5 -32t-58.5 -12q-7 0 -17 4z" />
<glyph unicode="&#xe21;" horiz-adv-x="815" d="M48 4v97h10l7 -1q21 0 35.5 14.5t14.5 35.5v580q0 21 -14.5 35.5t-35.5 14.5l-7 -1h-10v97q10 4 17 4q31 0 58.5 -10t47.5 -27t32 -41t12 -52v-450q0 -42 15.5 -78.5t42.5 -63.5t63.5 -42.5t78.5 -15.5t78.5 15.5t63.5 42.5t42.5 63.5t15.5 78.5v570l10 10h80l10 -10 v-570q0 -62 -21.5 -117t-61 -95.5t-95 -64t-122.5 -23.5q-63 0 -116.5 34t-83.5 91q0 -30 -12 -53.5t-32 -39t-47.5 -24t-58.5 -8.5q-7 0 -17 4z" />
<glyph unicode="&#xe22;" horiz-adv-x="775" d="M75 300q0 70 33.5 121t86.5 80q-58 29 -89 77.5t-31 111.5q0 39 15 74t40.5 60.5t60.5 40.5t74 15q30 0 53.5 -5.5t46.5 -16.5v-100h-10q-24 12 -43 17t-47 5q-38 0 -64 -26t-26 -64q0 -33 14.5 -58.5t40 -43.5t60.5 -27.5t76 -10.5l9 -8v-92q-42 0 -78.5 -8t-63.5 -25.5 t-42.5 -46t-15.5 -70.5t15.5 -78.5t42.5 -63.5t63.5 -42.5t78.5 -15.5t78.5 15.5t63.5 42.5t42.5 63.5t15.5 78.5v570l10 10h80l10 -10v-570q0 -62 -23.5 -117t-64 -95.5t-95.5 -64t-117 -23.5t-117 23.5t-95.5 64t-64 95.5t-23.5 117z" />
<glyph unicode="&#xe23;" horiz-adv-x="724" d="M59 640q0 49 19 93t51.5 77t76 51.5t93.5 18.5q45 -1 84 -3t75.5 -5.5t71.5 -8.5t73 -11v-98l-8 -4q-40 7 -76 13t-71.5 9.5t-71.5 5.5t-77 2q-29 0 -54.5 -11t-44.5 -30t-30 -44.5t-11 -54.5t11 -54.5t30 -44.5t44.5 -30t54.5 -11h110q52 0 97.5 -19.5t79.5 -53.5 t53.5 -79.5t19.5 -97.5t-19.5 -97.5t-53.5 -79.5t-79.5 -53.5t-97.5 -19.5q-25 0 -49.5 0.5t-52 2t-59 5t-68.5 9.5v99l8 3q30 -7 61 -11t60 -5.5t55 -2t45 -0.5q31 0 58.5 12t47.5 32t32 47.5t12 58.5t-12 58.5t-32 47.5t-47.5 32t-58.5 12h-110q-50 0 -93.5 19t-76 51.5 t-51.5 76t-19 93.5z" />
<glyph unicode="&#xe24;" horiz-adv-x="800" d="M70 674q36 95 120.5 150.5t209.5 55.5q62 0 117 -23.5t95.5 -64t64 -95.5t23.5 -117v-870l-10 -10h-80l-10 10v870q0 42 -15.5 78.5t-42.5 63.5t-63.5 42.5t-78.5 15.5q-83 0 -134.5 -24.5t-85.5 -81.5q7 -19 11.5 -41t6 -45t2 -46t0.5 -42v-350q0 -21 14.5 -35.5 t35.5 -14.5q17 0 31.5 1.5t26.5 6.5h10v-97q-14 -5 -31 -8t-37 -3q-31 0 -58.5 12t-47.5 32t-32 47.5t-12 58.5v350q0 99 -30 174z" />
<glyph unicode="&#xe25;" horiz-adv-x="769" d="M69 275q0 57 21.5 107t59 87.5t87.5 59t107 21.5q29 0 60.5 -9t61 -25t56.5 -38t47 -48v150q0 42 -15.5 78.5t-42.5 63.5t-63.5 42.5t-78.5 15.5q-34 0 -65 -10.5t-56 -29.5t-43 -45.5t-27 -57.5l-7 -4q-1 0 -14 5.5t-30 12.5q-19 8 -44 19q14 46 41.5 84.5t65 66.5 t83.5 43.5t96 15.5q62 0 117 -23.5t95.5 -64t64 -95.5t23.5 -117v-570l-10 -10h-80l-10 10v265q0 36 -21.5 68t-54.5 56t-73 37.5t-76 13.5t-68 -13.5t-56 -37.5t-37.5 -56t-13.5 -68t13.5 -68t37.5 -56t56 -37.5t68 -13.5q17 0 31.5 1.5t26.5 6.5h10v-97q-14 -5 -31 -8 t-37 -3q-57 0 -107 21.5t-87.5 59t-59 87.5t-21.5 107z" />
<glyph unicode="&#xe26;" horiz-adv-x="815" d="M48 4v97h10l7 -1q21 0 35.5 14.5t14.5 35.5v350q0 99 -30 174q36 95 120.5 150.5t209.5 55.5q62 0 117 -23.5t95.5 -64t64 -95.5t23.5 -117v-870l-10 -10h-80l-10 10v870q0 42 -15.5 78.5t-42.5 63.5t-63.5 42.5t-78.5 15.5q-83 0 -134.5 -24.5t-85.5 -81.5 q7 -19 11.5 -41t6 -45t2 -46t0.5 -42v-350q0 -31 -12 -58.5t-32 -47.5t-47.5 -32t-58.5 -12q-7 0 -17 4z" />
<glyph unicode="&#xe27;" horiz-adv-x="740" d="M47 646q11 50 38 93t66 74.5t87 49t102 17.5q62 0 117 -23.5t95.5 -64t64 -95.5t23.5 -117v-330q0 -52 -19.5 -97.5t-53.5 -79.5t-79.5 -53.5t-97.5 -19.5q-64 0 -120 31v100h10q29 -15 53 -23t57 -8q31 0 58.5 12t47.5 32t32 47.5t12 58.5v330q0 42 -15.5 78.5 t-42.5 63.5t-63.5 42.5t-78.5 15.5q-38 0 -71.5 -13t-60 -35.5t-43.5 -53.5t-23 -67l-10 -2z" />
<glyph unicode="&#xe28;" horiz-adv-x="830" d="M100 10v555q0 65 24.5 122.5t67.5 100t100.5 67.5t122.5 25q45 0 94 0.5t96 4t88 10.5t69 21l28 -91q-23 -17 -61 -26.5t-89 -13.5q42 -43 66 -99.5t24 -120.5v-555l-10 -10h-80l-10 10v555q0 45 -17 84t-46 68t-68 46t-84 17t-84 -17t-68 -46t-46 -68t-17 -84v-225 q42 57 97 83.5t118 26.5q20 0 37 -3t31 -8v-97h-10q-12 5 -26.5 6.5t-31.5 1.5q-45 0 -84 -17t-68 -46t-46 -68t-17 -84v-125l-10 -10h-80z" />
<glyph unicode="&#xe29;" horiz-adv-x="815" d="M48 779v97q10 4 17 4q31 0 58.5 -10t47.5 -27t32 -41t12 -52v-500q0 -31 12 -58.5t32 -47.5t47.5 -32t58.5 -12h100q31 0 58.5 12t47.5 32t32 47.5t12 58.5v8q-2 40 -18 75t-43 61t-63 41t-76 15q-17 0 -31.5 -1.5t-26.5 -6.5h-10v97q14 5 31 8t37 3q58 0 109 -23.5 t91 -76.5v430h100v-630q0 -52 -19.5 -97.5t-53.5 -79.5t-79.5 -53.5t-97.5 -19.5h-100q-52 0 -97.5 19.5t-79.5 53.5t-53.5 79.5t-19.5 97.5v480q0 21 -14.5 35.5t-35.5 14.5l-7 -1h-10z" />
<glyph unicode="&#xe2a;" horiz-adv-x="769" d="M69 275q0 57 21.5 107t59 87.5t87.5 59t107 21.5q29 0 60.5 -9t61 -25t56.5 -38t47 -48v150q0 42 -15.5 78.5t-42.5 63.5t-63.5 42.5t-78.5 15.5q-34 0 -65 -10.5t-56 -29.5t-43 -45.5t-27 -57.5l-7 -4q-1 0 -14 5.5t-30 12.5q-19 8 -44 19q14 46 41.5 84.5t65 66.5 t83.5 43.5t96 15.5q90 0 173 4.5t159 31.5l28 -91q-23 -17 -61 -26.5t-89 -13.5q42 -43 66 -92t24 -113v-570l-10 -10h-80l-10 10v265q0 36 -21.5 68t-54.5 56t-73 37.5t-76 13.5t-68 -13.5t-56 -37.5t-37.5 -56t-13.5 -68t13.5 -68t37.5 -56t56 -37.5t68 -13.5 q17 0 31.5 1.5t26.5 6.5h10v-97q-14 -5 -31 -8t-37 -3q-57 0 -107 21.5t-87.5 59t-59 87.5t-21.5 107z" />
<glyph unicode="&#xe2b;" horiz-adv-x="815" d="M48 779v97q10 4 17 4q31 0 58.5 -10t47.5 -27t32 -41t12 -52v-200q86 0 154.5 16t116.5 52t73.5 94.5t25.5 142.5l10 10l90 15q0 -72 -11.5 -127t-33.5 -97.5t-52.5 -74.5t-69.5 -57q36 -5 71.5 -22.5t63.5 -46t45 -67.5t17 -88v-290l-10 -10h-80l-10 10v290 q0 34 -17 63.5t-45 52.5t-63.5 39t-71.5 22q-46 -14 -96.5 -20.5t-106.5 -6.5v-440l-10 -10h-80l-10 10v720q0 21 -14.5 35.5t-35.5 14.5l-7 -1h-10z" />
<glyph unicode="&#xe2c;" horiz-adv-x="915" d="M48 779v97q10 4 17 4q31 0 58.5 -10t47.5 -27t32 -41t12 -52v-550q0 -42 29 -71t71 -29q20 0 38 7.5t31.5 21t21.5 32t9 39.5v494l6 6h88l6 -6v-494q0 -42 29 -71t71 -29t71 29t29 71v430q0 30 -11.5 57t-31.5 47t-47.5 32.5t-59.5 13.5v94l6 6q30 1 56 13t45.5 32.5 t31 47.5t11.5 57q0 7 -1.5 19t-3.5 26.5t-5.5 29t-6.5 25.5l10 10l88 10q4 -11 7.5 -26t6 -31.5t4 -33t1.5 -29.5q0 -62 -27.5 -114t-72.5 -86q45 -35 72.5 -87t27.5 -113v-430q0 -41 -16 -77.5t-43 -63.5t-63.5 -43t-77.5 -16q-45 0 -86.5 24.5t-63.5 65.5 q-22 -41 -63.5 -65.5t-86.5 -24.5q-41 0 -77.5 16t-63.5 43t-43 63.5t-16 77.5v530q0 21 -14.5 35.5t-35.5 14.5l-7 -1h-10z" />
<glyph unicode="&#xe2d;" horiz-adv-x="750" d="M70 300q0 62 23.5 109t64 78.5t95.5 47t117 15.5q20 0 37 -3t31 -8v-97h-10q-12 5 -26.5 6.5t-31.5 1.5q-42 0 -78.5 -8t-63.5 -25.5t-42.5 -46t-15.5 -70.5t15.5 -78.5t42.5 -63.5t63.5 -42.5t78.5 -15.5t78.5 15.5t63.5 42.5t42.5 63.5t15.5 78.5v280q0 42 -15.5 78.5 t-42.5 63.5t-63.5 42.5t-78.5 15.5q-34 0 -65 -10.5t-56 -29.5t-43 -45.5t-27 -57.5l-8 -4q-1 0 -14 5.5t-30 12.5q-19 8 -43 19q14 46 41.5 84.5t65 66.5t83.5 43.5t96 15.5q62 0 117 -23.5t95.5 -64t64 -95.5t23.5 -117v-280q0 -62 -23.5 -117t-64 -95.5t-95.5 -64 t-117 -23.5t-117 23.5t-95.5 64t-64 95.5t-23.5 117z" />
<glyph unicode="&#xe2e;" horiz-adv-x="760" d="M70 300q0 62 23.5 109t64 78.5t95.5 47t117 15.5q20 0 37 -3t31 -8v-97h-10q-12 5 -26.5 6.5t-31.5 1.5q-42 0 -78.5 -8t-63.5 -25.5t-42.5 -46t-15.5 -70.5t15.5 -78.5t42.5 -63.5t63.5 -42.5t78.5 -15.5t78.5 15.5t63.5 42.5t42.5 63.5t15.5 78.5v280q0 42 -15.5 78.5 t-42.5 63.5t-63.5 42.5t-78.5 15.5q-34 0 -65 -10.5t-56 -29.5t-43 -45.5t-27 -57.5l-8 -4q-1 0 -14 5.5t-30 12.5q-19 8 -43 19q14 46 41.5 84.5t65 66.5t83.5 43.5t96 15.5q90 0 173 4.5t159 31.5l28 -91q-23 -17 -61 -26.5t-89 -13.5q42 -43 66 -92t24 -113v-280 q0 -62 -23.5 -117t-64 -95.5t-95.5 -64t-117 -23.5t-117 23.5t-95.5 64t-64 95.5t-23.5 117z" />
<glyph unicode="&#xe2f;" horiz-adv-x="640" d="M40 800q0 21 3 39t9 37l9 4l83 -20l5 -10q-4 -11 -6.5 -24t-2.5 -26q0 -31 12 -58.5t32 -47.5t47.5 -32t58.5 -12t58.5 12t47.5 32t32 47.5t12 58.5v70l10 10h80l10 -10v-860l-10 -10h-80l-10 10v590q-32 -24 -70 -37t-80 -13q-52 0 -97.5 19.5t-79.5 53.5t-53.5 79.5 t-19.5 97.5z" />
<glyph unicode="&#xe30;" horiz-adv-x="450" d="M50 226l83 39l10 -4q0 -21 14.5 -31t35.5 -10h196l11 -11v-78l-11 -11h-196q-63 0 -98 28t-45 78zM50 756l83 39l10 -4q0 -21 14.5 -31t35.5 -10h196l11 -11v-78l-11 -11h-196q-63 0 -98 28t-45 78z" />
<glyph unicode="&#xe31;" d="M-500 1150q0 19 3 32.5t8 27.5h97v-10q-5 -12 -6.5 -21t-1.5 -26q0 -25 14.5 -44t35.5 -19h269l11 -11v-68l-11 -11h-269q-31 0 -58.5 8t-47.5 26t-32 46.5t-12 69.5z" />
<glyph unicode="&#xe32;" horiz-adv-x="650" d="M25 779q42 47 100 74t125 27q62 0 117 -23.5t95.5 -64t64 -95.5t23.5 -117v-570l-10 -10h-80l-10 10v570q0 42 -15.5 78.5t-42.5 63.5t-63.5 42.5t-78.5 15.5q-45 0 -83.5 -18t-66.5 -50h-10z" />
<glyph unicode="&#xe33;" horiz-adv-x="650" d="M-370 1090q0 23 8.5 43t23.5 35t35 23.5t43 8.5t43 -8.5t35 -23.5t23.5 -35t8.5 -43t-8.5 -43t-23.5 -35t-35 -23.5t-43 -8.5t-43 8.5t-35 23.5t-23.5 35t-8.5 43zM-300 1090q0 -17 11.5 -28.5t28.5 -11.5t28.5 11.5t11.5 28.5t-11.5 28.5t-28.5 11.5t-28.5 -11.5 t-11.5 -28.5zM25 779q42 47 100 74t125 27q62 0 117 -23.5t95.5 -64t64 -95.5t23.5 -117v-570l-10 -10h-80l-10 10v570q0 42 -15.5 78.5t-42.5 63.5t-63.5 42.5t-78.5 15.5q-45 0 -83.5 -18t-66.5 -50h-10z" />
<glyph unicode="&#xe34;" d="M-660 1040v10q26 22 59 39.5t69.5 29t75 17.5t76.5 6q37 0 76 -6t75.5 -17.5t69.5 -29t59 -39.5v-10l-45 -69h-9q-20 16 -47 29t-58 22.5t-62.5 14.5t-58.5 5t-58.5 -5t-62.5 -14.5t-58.5 -22.5t-46.5 -29h-9z" />
<glyph unicode="&#xe35;" d="M-660 1040v10q26 22 59 39.5t69.5 29t75 17.5t76.5 6q45 0 91.5 -8.5t88.5 -25.5v82l10 10h80l10 -10v-150l-45 -69h-9q-20 16 -47 29t-58 22.5t-62.5 14.5t-58.5 5t-58.5 -5t-62.5 -14.5t-58.5 -22.5t-46.5 -29h-9z" />
<glyph unicode="&#xe36;" d="M-660 1059v10q26 17 59 30.5t69.5 23t75 14.5t76.5 5q22 0 43 -2t43 -6q11 29 36.5 47.5t57.5 18.5q42 0 71 -29t29 -71t-29 -71t-71 -29q-19 0 -38 6.5t-40.5 14.5t-46.5 14.5t-55 6.5q-27 0 -58.5 -4t-62.5 -11t-58.5 -16.5t-46.5 -20.5h-9zM-240 1100 q0 -17 11.5 -28.5t28.5 -11.5t28.5 11.5t11.5 28.5t-11.5 28.5t-28.5 11.5t-28.5 -11.5t-11.5 -28.5z" />
<glyph unicode="&#xe37;" d="M-660 1040v10q26 22 59 39.5t69.5 29t75 17.5t76.5 6q17 0 35 -1.5t35 -3.5v53l10 10h60l10 -10v-71q13 -5 25.5 -9.5t24.5 -9.5v90l10 10h60l10 -10v-150l-45 -69h-9q-20 16 -47 29t-58 22.5t-62.5 14.5t-58.5 5t-58.5 -5t-62.5 -14.5t-58.5 -22.5t-46.5 -29h-9z" />
<glyph unicode="&#xe38;" d="M-353 -101q14 5 31 8t37 3q26 0 48.5 -10t39.5 -27t27 -39.5t10 -48.5v-165l-10 -10h-80l-10 10v165q0 11 -7 18t-18 7q-17 0 -31.5 -1.5t-26.5 -6.5h-10v97z" />
<glyph unicode="&#xe39;" d="M-459 -94q5 2 11.5 3t12.5 1q54 0 79.5 -31t25.5 -94v-74q0 -8 5.5 -14t13.5 -6h51q8 0 14 6t6 14v189l10 10h60l10 -10v-189q0 -21 -8 -39.5t-21.5 -32t-31.5 -21t-39 -7.5h-51q-21 0 -39 8t-31.5 21.5t-21 32t-7.5 39.5v73q0 11 -7 18t-18 7l-14 -1h-10v97z" />
<glyph unicode="&#xe3a;" d="M-270 -185q0 35 25 60t60 25t60 -25t25 -60t-25 -60t-60 -25t-60 25t-25 60z" />
<glyph unicode="&#xe3b;" />
<glyph unicode="&#xe3c;" />
<glyph unicode="&#xe3d;" />
<glyph unicode="&#xe3e;" />
<glyph unicode="&#xe3f;" horiz-adv-x="979" d="M100 150v850q0 31 12 58.5t32 47.5t47.5 32t58.5 12h150v140l10 10h80l10 -10v-140h50q62 0 117 -23.5t95.5 -64t64 -95.5t23.5 -117q0 -75 -32.5 -137t-92.5 -103q79 -42 127 -117t48 -168q0 -67 -25.5 -126t-70 -103.5t-103.5 -70t-126 -25.5h-75v-140l-10 -10h-80 l-10 10v140h-150q-31 0 -58.5 12t-47.5 32t-32 47.5t-12 58.5zM200 150q0 -21 14.5 -35.5t35.5 -14.5h150v450h-200v-400zM200 650h200v400h-150q-21 0 -35.5 -14.5t-14.5 -35.5v-350zM500 100h75q46 0 87 17.5t72 48.5t48.5 71.5t17.5 87.5q0 46 -17.5 87t-48.5 72 t-72 48.5t-87 17.5h-75v-450zM500 650h50q42 0 78.5 15.5t63.5 42.5t42.5 63.5t15.5 78.5t-15.5 78.5t-42.5 63.5t-63.5 42.5t-78.5 15.5h-50v-400z" />
<glyph unicode="&#xe40;" horiz-adv-x="330" d="M100 125v745l10 10h80l10 -10v-745q0 -11 7 -18t18 -7q17 0 31.5 1.5t26.5 6.5h10v-97q-14 -5 -31 -8t-37 -3q-26 0 -48.5 10t-39.5 27t-27 39.5t-10 48.5z" />
<glyph unicode="&#xe41;" horiz-adv-x="630" d="M100 125v745l10 10h80l10 -10v-745q0 -11 7 -18t18 -7q17 0 31.5 1.5t26.5 6.5h10v-97q-14 -5 -31 -8t-37 -3q-26 0 -48.5 10t-39.5 27t-27 39.5t-10 48.5zM400 129v745l10 10h80l10 -10v-745q0 -11 7 -18t18 -7q17 0 31.5 1.5t26.5 6.5h10v-97q-14 -5 -31 -8t-37 -3 q-26 0 -48.5 10t-39.5 27t-27 39.5t-10 48.5z" />
<glyph unicode="&#xe42;" horiz-adv-x="330" d="M-50 1200q0 31 11.5 58.5t32 47.5t47.5 32t58 12h290l11 -11v-78l-11 -11h-289q-21 0 -35.5 -14.5t-14.5 -35.5q0 -30 23.5 -55.5t51.5 -51t51.5 -52.5t23.5 -61v-855q0 -11 7 -18t18 -7q17 0 31.5 1.5t26.5 6.5h10v-97q-14 -5 -31 -8t-37 -3q-26 0 -48.5 10t-39.5 27 t-27 39.5t-10 48.5v816q0 33 -23.5 61t-51.5 57t-51.5 62.5t-23.5 78.5z" />
<glyph unicode="&#xe43;" horiz-adv-x="330" d="M-100 1206q12 31 33 57.5t48.5 46t60 30t68.5 10.5q46 0 87 -17.5t72 -48.5t48.5 -72t17.5 -87q0 -47 -21 -86.5t-46.5 -75t-46.5 -67t-21 -61.5v-710q0 -11 7 -18t18 -7q17 0 31.5 1.5t26.5 6.5h10v-97q-14 -5 -31 -8t-37 -3q-26 0 -48.5 10t-39.5 27t-27 39.5t-10 48.5 v675q0 61 21 106t46.5 82t46.5 69t21 68q0 26 -10 48.5t-27 39.5t-39.5 27t-48.5 10q-40 0 -69.5 -18.5t-43.5 -53.5l-11 -4z" />
<glyph unicode="&#xe44;" horiz-adv-x="330" d="M-30 1252v88q37 3 69 4.5t63.5 2.5t67 1.5t80.5 1.5q31 0 58.5 -12t47.5 -32t32 -47.5t12 -58.5q0 -25 -15 -52t-37 -55t-48 -55.5t-48 -53.5t-37 -50t-15 -44v-765q0 -11 7 -18t18 -7q17 0 31.5 1.5t26.5 6.5h10v-97q-14 -5 -31 -8t-37 -3q-26 0 -48.5 10t-39.5 27 t-27 39.5t-10 48.5v750q0 31 15.5 62t39 61t50.5 58t50.5 54t39 48.5t15.5 41.5q0 25 -17.5 42.5t-42.5 17.5q-41 0 -73.5 -0.5t-63.5 -2t-63 -3.5t-72 -6z" />
<glyph unicode="&#xe45;" horiz-adv-x="650" d="M25 779q42 47 100 74t125 27q62 0 117 -23.5t95.5 -64t64 -95.5t23.5 -117v-870l-10 -10h-80l-10 10v870q0 42 -15.5 78.5t-42.5 63.5t-63.5 42.5t-78.5 15.5q-45 0 -83.5 -18t-66.5 -50h-10z" />
<glyph unicode="&#xe46;" horiz-adv-x="740" d="M40 680q0 41 16 77.5t43 63.5t63.5 43t77.5 16q39 0 75.5 -20t59.5 -45q19 24 49.5 44.5t65.5 20.5q31 0 58.5 -12t47.5 -32t32 -47.5t12 -58.5v-1020l-10 -10h-80l-10 10v1020q0 21 -14.5 35.5t-35.5 14.5t-35.5 -14.5t-14.5 -35.5v-50l-10 -10h-80l-10 10q0 42 -29 71 t-71 29t-71 -29t-29 -71q0 -34 17.5 -56.5t47.5 -36.5l3 -7l-37 -88q-29 10 -53 29t-41 43.5t-27 54t-10 61.5z" />
<glyph unicode="&#xe47;" d="M-561 1085q0 24 9 44.5t25 36.5t36.5 25t44.5 9h335l11 -11v-58l-11 -11h-335q-14 0 -24.5 -10.5t-10.5 -24.5t10.5 -24.5t24.5 -10.5q16 0 24 6.5t11 17.5l6 6h68l6 -6q2 -9 11.5 -16.5t23.5 -7.5q12 0 19 4.5t12 12.5h7l61 -33l1 -4q-14 -26 -40.5 -43t-59.5 -17 q-22 0 -43.5 11.5t-32.5 23.5q-11 -12 -32 -23.5t-42 -11.5q-24 0 -44.5 9t-36.5 25t-25 36.5t-9 44.5z" />
<glyph unicode="&#xe48;" d="M-200 1260v200l10 10h80l10 -10v-200l-10 -10h-80z" />
<glyph unicode="&#xe49;" d="M-450 1357v83q11 5 27 7.5t23 2.5q42 0 66 -29t24 -71q0 -10 10 -10h200l11 -11v-68l-11 -11h-200q-42 0 -71 29t-29 71q0 8 -6 10.5t-14 2.5q-5 0 -11.5 -1.5t-13.5 -5.5z" />
<glyph unicode="&#xe4a;" d="M-520 1285q0 26 10 48.5t27 39.5t39.5 27t48.5 10q25 0 49 -12t36 -28q13 16 36.5 28t48.5 12q22 0 45 -15v65l10 10h60l10 -10v-200l-10 -10h-60l-10 10v25q0 19 -13 32t-32 13q-18 0 -30.5 -12.5t-14.5 -32.5l-10 -10h-60l-10 10q0 19 -13 32t-32 13t-32 -13t-13 -32 q0 -16 12 -30l-61 -46l-6 1q-25 31 -25 75z" />
<glyph unicode="&#xe4b;" d="M-310 1325v70l10 10h55v55l10 10h70l10 -10v-55h55l10 -10v-70l-10 -10h-55v-55l-10 -10h-70l-10 10v55h-55z" />
<glyph unicode="&#xe4c;" d="M-400 1250q0 26 10 48.5t27 39.5t39.5 27t48.5 10h215l10 -10v-70l-10 -10h-215q-14 0 -24.5 -10.5t-10.5 -24.5q0 -6 2 -10l-2 -6l-84 -18q-6 18 -6 34z" />
<glyph unicode="&#xe4d;" d="M-370 1090q0 23 8.5 43t23.5 35t35 23.5t43 8.5t43 -8.5t35 -23.5t23.5 -35t8.5 -43t-8.5 -43t-23.5 -35t-35 -23.5t-43 -8.5t-43 8.5t-35 23.5t-23.5 35t-8.5 43zM-300 1090q0 -17 11.5 -28.5t28.5 -11.5t28.5 11.5t11.5 28.5t-11.5 28.5t-28.5 11.5t-28.5 -11.5 t-11.5 -28.5z" />
<glyph unicode="&#xe4e;" d="M-400 1150q0 52 31.5 91.5t79.5 52.5q-11 22 -11 46q0 42 29 71t71 29h150v-60h-150q-17 0 -28.5 -11.5t-11.5 -28.5t11.5 -28.5t28.5 -11.5v-60h-4h-46q-38 0 -64 -26t-26 -64t26 -64t64 -26t64 26t26 64h60q0 -31 -12 -58.5t-32 -47.5t-47.5 -32t-58.5 -12t-58.5 12 t-47.5 32t-32 47.5t-12 58.5z" />
<glyph unicode="&#xe4f;" horiz-adv-x="800" d="M100 400q0 62 23.5 117t64 95.5t95.5 64t117 23.5t117 -23.5t95.5 -64t64 -95.5t23.5 -117t-23.5 -117t-64 -95.5t-95.5 -64t-117 -23.5t-117 23.5t-95.5 64t-64 95.5t-23.5 117zM160 400q0 -50 19 -93.5t51.5 -76t76 -51.5t93.5 -19t93.5 19t76 51.5t51.5 76t19 93.5 t-19 93.5t-51.5 76t-76 51.5t-93.5 19t-93.5 -19t-76 -51.5t-51.5 -76t-19 -93.5zM250 400q0 31 12 58.5t32 47.5t47.5 32t58.5 12t58.5 -12t47.5 -32t32 -47.5t12 -58.5t-12 -58.5t-32 -47.5t-47.5 -32t-58.5 -12t-58.5 12t-47.5 32t-32 47.5t-12 58.5z" />
<glyph unicode="&#xe50;" horiz-adv-x="720" d="M60 300v100q0 62 23.5 117t64 95.5t95.5 64t117 23.5t117 -23.5t95.5 -64t64 -95.5t23.5 -117v-100q0 -62 -23.5 -117t-64 -95.5t-95.5 -64t-117 -23.5t-117 23.5t-95.5 64t-64 95.5t-23.5 117zM160 300q0 -42 15.5 -78.5t42.5 -63.5t63.5 -42.5t78.5 -15.5t78.5 15.5 t63.5 42.5t42.5 63.5t15.5 78.5v100q0 42 -15.5 78.5t-42.5 63.5t-63.5 42.5t-78.5 15.5t-78.5 -15.5t-63.5 -42.5t-42.5 -63.5t-15.5 -78.5v-100z" />
<glyph unicode="&#xe51;" horiz-adv-x="696" d="M36 400q0 62 23.5 117t64 95.5t95.5 64t117 23.5t117 -23.5t95.5 -64t64 -95.5t23.5 -117v-100q0 -62 -23.5 -117t-64 -95.5t-95.5 -64t-117 -23.5q-84 0 -159 12l20 92l4 2q35 -5 66.5 -5.5t68.5 -0.5q42 0 78.5 15.5t63.5 42.5t42.5 63.5t15.5 78.5v100 q0 42 -15.5 78.5t-42.5 63.5t-63.5 42.5t-78.5 15.5t-78.5 -15.5t-63.5 -42.5t-42.5 -63.5t-15.5 -78.5q0 -26 10 -48.5t27 -39.5t39.5 -27t48.5 -10q17 0 31.5 1.5t26.5 6.5h10v-97q-14 -5 -31 -8t-37 -3q-47 0 -87.5 17.5t-71.5 48.5t-48.5 71.5t-17.5 87.5z" />
<glyph unicode="&#xe52;" horiz-adv-x="900" d="M67 860l10 10q30 4 47.5 6t26.5 3q11 1 14 1q6 -17 10.5 -45t4.5 -55v-530q0 -31 12 -58.5t32 -47.5t47.5 -32t58.5 -12h250q31 0 58.5 12t47.5 32t32 47.5t12 58.5v275q0 32 -21.5 53.5t-53.5 21.5t-53.5 -21.5t-21.5 -53.5v-215l-10 -10h-80l-10 10v215q0 15 -6 28.5 t-16.5 24t-24 16.5t-28.5 6q-35 0 -72.5 -20.5t-69.5 -53.5l-13 2v108q29 31 68 47.5t87 16.5q37 0 71.5 -18t53.5 -42q19 24 53.5 42t71.5 18q36 0 68 -13.5t56 -37.5t37.5 -56t13.5 -68v-275q0 -52 -19.5 -97.5t-53.5 -79.5t-79.5 -53.5t-97.5 -19.5h-250 q-52 0 -97.5 19.5t-79.5 53.5t-53.5 79.5t-19.5 97.5v530q0 7 -1 17.5t-3 22t-4.5 22.5t-4.5 18z" />
<glyph unicode="&#xe53;" horiz-adv-x="830" d="M60 250v250q0 41 16 77.5t43 63.5t63.5 43t77.5 16q45 0 84.5 -21.5t65.5 -53.5q26 32 65.5 53.5t84.5 21.5q41 0 77.5 -16t63.5 -43t43 -63.5t16 -77.5v-490l-10 -10h-80l-10 10v490q0 42 -29 71t-71 29q-20 0 -38 -8t-31.5 -22t-21.5 -32t-9 -38v-290l-10 -10h-80 l-10 10v290q0 42 -29 71t-71 29t-71 -29t-29 -71v-250q0 -31 12 -58.5t32 -47.5t47.5 -32t58.5 -12q17 0 31.5 1.5t26.5 6.5h10v-97q-14 -5 -31 -8t-37 -3q-52 0 -97.5 19.5t-79.5 53.5t-53.5 79.5t-19.5 97.5z" />
<glyph unicode="&#xe54;" horiz-adv-x="694" d="M60 250v200q0 52 19.5 97.5t53.5 79.5t79.5 53.5t97.5 19.5q43 0 89 -3.5t84 0.5t62.5 22t24.5 61q0 7 -1 17.5t-3 22t-4.5 22.5t-4.5 18l10 10q30 4 47.5 6t26.5 3q11 1 14 1q6 -17 10.5 -45t4.5 -55q0 -51 -16.5 -84.5t-44.5 -53.5t-64.5 -29t-76.5 -12t-81 -2t-77 1 q-31 0 -58.5 -12t-47.5 -32t-32 -47.5t-12 -58.5v-200q0 -31 12 -58.5t32 -47.5t47.5 -32t58.5 -12q23 0 44 6.5t38 17.5q-7 22 -7 51q0 36 13.5 68t37.5 56t56 37.5t68 13.5h14v-96l-4 -4h-10q-32 0 -53.5 -21.5t-21.5 -53.5t21.5 -53.5t53.5 -21.5q17 0 31.5 1.5t26.5 6.5 h10v-97q-14 -5 -31 -8t-37 -3q-35 0 -66 12.5t-54 34.5q-26 -22 -59 -34.5t-71 -12.5q-52 0 -97.5 19.5t-79.5 53.5t-53.5 79.5t-19.5 97.5z" />
<glyph unicode="&#xe55;" horiz-adv-x="694" d="M60 250v200q0 52 19.5 97.5t53.5 79.5t79.5 53.5t97.5 19.5q5 10 6 24t-1.5 28.5t-7 27t-10.5 20.5l3 9q30 4 48 5.5t29 3.5q12 1 18 2q14 -23 19 -58t-4 -66q31 -2 60 -0.5t51.5 10t35.5 26t13 48.5q0 7 -1 17.5t-3 22t-4.5 22.5t-4.5 18l10 10q30 4 47.5 6t26.5 3 q11 1 14 1q6 -17 10.5 -45t4.5 -55q0 -51 -16.5 -84.5t-44.5 -53.5t-64.5 -29t-76.5 -12t-81 -2t-77 1q-31 0 -58.5 -12t-47.5 -32t-32 -47.5t-12 -58.5v-200q0 -31 12 -58.5t32 -47.5t47.5 -32t58.5 -12q23 0 44 6.5t38 17.5q-7 22 -7 51q0 36 13.5 68t37.5 56t56 37.5 t68 13.5h14v-96l-4 -4h-10q-32 0 -53.5 -21.5t-21.5 -53.5t21.5 -53.5t53.5 -21.5q17 0 31.5 1.5t26.5 6.5h10v-97q-14 -5 -31 -8t-37 -3q-35 0 -66 12.5t-54 34.5q-26 -22 -59 -34.5t-71 -12.5q-52 0 -97.5 19.5t-79.5 53.5t-53.5 79.5t-19.5 97.5z" />
<glyph unicode="&#xe56;" horiz-adv-x="760" d="M3 854l10 10l85 16q23 -48 40 -101t28 -117q23 9 52 16.5t60 12t62 7t60 2.5q62 0 117 -23.5t95.5 -64t64 -95.5t23.5 -117v-100q0 -62 -23.5 -117t-64 -95.5t-95.5 -64t-117 -23.5t-117 18t-95.5 51t-64 79t-23.5 102q0 46 17.5 87t48.5 72t71.5 48.5t87.5 17.5 q20 0 37 -3t31 -8v-97h-10q-12 5 -26.5 6.5t-31.5 1.5q-26 0 -48.5 -10t-39.5 -27t-27 -39.5t-10 -48.5q0 -39 15.5 -67.5t42.5 -47t63.5 -27t78.5 -8.5t78.5 15.5t63.5 42.5t42.5 63.5t15.5 78.5v100q0 42 -15.5 78.5t-42.5 63.5t-63.5 42.5t-78.5 15.5q-75 0 -143.5 -15.5 t-143.5 -50.5l-21 10q-14 82 -37 158.5t-52 151.5z" />
<glyph unicode="&#xe57;" horiz-adv-x="1040" d="M60 250v250q0 41 16 77.5t43 63.5t63.5 43t77.5 16q45 0 84.5 -21.5t65.5 -53.5q26 32 65.5 53.5t84.5 21.5q41 0 77.5 -16t63.5 -43t43 -63.5t16 -77.5v-350q0 -21 14.5 -35.5t35.5 -14.5t35.5 14.5t14.5 35.5v630q0 7 -1 17.5t-3 22t-4.5 22.5t-4.5 18l10 10 q30 4 47.5 6t26.5 3q11 1 14 1q6 -17 10.5 -45t4.5 -55v-630q0 -31 -12 -58.5t-32 -47.5t-47.5 -32t-58.5 -12t-58.5 12t-47.5 32t-32 47.5t-12 58.5v350q0 42 -29 71t-71 29q-20 0 -38 -8t-31.5 -22t-21.5 -32t-9 -38v-290l-10 -10h-80l-10 10v290q0 42 -29 71t-71 29 t-71 -29t-29 -71v-250q0 -31 12 -58.5t32 -47.5t47.5 -32t58.5 -12q17 0 31.5 1.5t26.5 6.5h10v-97q-14 -5 -31 -8t-37 -3q-52 0 -97.5 19.5t-79.5 53.5t-53.5 79.5t-19.5 97.5z" />
<glyph unicode="&#xe58;" horiz-adv-x="753" d="M60 175v275q0 52 19.5 97.5t53.5 79.5t79.5 53.5t97.5 19.5q28 0 61.5 -2t67 -3t64.5 1.5t54.5 11.5t38 26t14.5 46q0 7 -1 17.5t-3 22t-4.5 22.5t-4.5 18l10 10q30 4 47.5 6t26.5 3q11 1 14 1q6 -17 10.5 -45t4.5 -55q0 -53 -19.5 -86.5t-52 -53.5t-74 -29t-86 -11 t-88.5 -1t-80 1q-31 0 -58.5 -12t-47.5 -32t-32 -47.5t-12 -58.5v-275q0 -32 21.5 -53.5t53.5 -21.5t53.5 21.5t21.5 53.5v165l10 10h80l10 -10v-140q0 -42 29 -71t71 -29t71 29t29 71t-29 71t-71 29l-7 -1h-10v97q10 4 17 4q41 0 77.5 -16t63.5 -43t43 -63.5t16 -77.5 t-16 -77.5t-43 -63.5t-63.5 -43t-77.5 -16q-42 0 -80 20t-63 50q-20 -30 -56 -50t-76 -20q-36 0 -68 13.5t-56 37.5t-37.5 56t-13.5 68z" />
<glyph unicode="&#xe59;" horiz-adv-x="773" d="M60 250v200q0 52 16.5 97.5t46.5 79.5t72.5 53.5t94.5 19.5q42 0 80 -20.5t63 -53.5q20 33 54.5 53.5t76.5 20.5q38 0 71 -15t57 -45q17 30 23.5 89t-5.5 131l10 10q30 4 47.5 6t26.5 3q11 1 14 1q11 -53 8 -104t-14.5 -97.5t-28.5 -86t-34 -67.5l-10 -10h-80l-10 10 q0 32 -21.5 53.5t-53.5 21.5t-53.5 -21.5t-21.5 -53.5q42 -108 71 -240t40 -275l-10 -10h-80l-10 10q-4 52 -13 116.5t-23.5 130t-33 127.5t-40.5 110t-47.5 77t-52.5 29q-31 0 -55.5 -12t-41 -32t-25 -47.5t-8.5 -58.5v-200q0 -31 12 -58.5t32 -47.5t47.5 -32t58.5 -12 q17 0 31.5 1.5t26.5 6.5h10v-97q-14 -5 -31 -8t-37 -3q-52 0 -97.5 19.5t-79.5 53.5t-53.5 79.5t-19.5 97.5z" />
<glyph unicode="&#xe5a;" horiz-adv-x="840" d="M40 800q0 21 3 39t9 37l9 4l83 -20l5 -10q-4 -11 -6.5 -24t-2.5 -26q0 -31 12 -58.5t32 -47.5t47.5 -32t58.5 -12t58.5 12t47.5 32t32 47.5t12 58.5v70l10 10h80l10 -10v-860l-10 -10h-80l-10 10v590q-32 -24 -70 -37t-80 -13q-52 0 -97.5 19.5t-79.5 53.5t-53.5 79.5 t-19.5 97.5zM640 10v860l10 10h80l10 -10v-860l-10 -10h-80z" />
<glyph unicode="&#xe5b;" horiz-adv-x="1050" d="M50 350q0 52 19.5 97.5t53.5 79.5t79.5 53.5t97.5 19.5q50 0 93 -18t77 -49l-61 -80q-20 22 -48.5 34.5t-60.5 12.5q-31 0 -58.5 -12t-47.5 -32t-32 -47.5t-12 -58.5t12 -58.5t32 -47.5t47.5 -32t58.5 -12q30 0 57 12t47 33t32.5 48t13.5 57l10 10h80l10 -10 q1 -15 7.5 -28.5t16.5 -24t23 -16.5t28 -6q32 0 53.5 21.5t21.5 53.5l10 10h80l10 -10q0 -21 14.5 -35.5t35.5 -14.5t35.5 14.5t14.5 35.5l10 10h80l10 -10q0 -31 -12 -58.5t-32 -47.5t-47.5 -32t-58.5 -12q-56 0 -95 45q-24 -34 -57.5 -52t-72.5 -18q-33 0 -62.5 16 t-51.5 39q-33 -57 -88.5 -93.5t-122.5 -36.5q-52 0 -97.5 19.5t-79.5 53.5t-53.5 79.5t-19.5 97.5z" />
<glyph unicode="&#x2000;" horiz-adv-x="735" />
<glyph unicode="&#x2001;" horiz-adv-x="1470" />
<glyph unicode="&#x2002;" horiz-adv-x="735" />
<glyph unicode="&#x2003;" horiz-adv-x="1470" />
<glyph unicode="&#x2004;" horiz-adv-x="490" />
<glyph unicode="&#x2005;" horiz-adv-x="367" />
<glyph unicode="&#x2006;" horiz-adv-x="245" />
<glyph unicode="&#x2007;" horiz-adv-x="245" />
<glyph unicode="&#x2008;" horiz-adv-x="183" />
<glyph unicode="&#x2009;" horiz-adv-x="294" />
<glyph unicode="&#x200a;" horiz-adv-x="81" />
<glyph unicode="&#x200b;" />
<glyph unicode="&#x2010;" horiz-adv-x="700" d="M50 460v80l10 10h580l10 -10v-80l-10 -10h-580z" />
<glyph unicode="&#x2011;" horiz-adv-x="700" d="M50 460v80l10 10h580l10 -10v-80l-10 -10h-580z" />
<glyph unicode="&#x2012;" horiz-adv-x="700" d="M50 460v80l10 10h580l10 -10v-80l-10 -10h-580z" />
<glyph unicode="&#x2013;" horiz-adv-x="701" d="M51 440v80l10 10h580l10 -10v-80l-10 -10h-580z" />
<glyph unicode="&#x2014;" horiz-adv-x="900" d="M52 440v80l10 10h780l10 -10v-80l-10 -10h-780z" />
<glyph unicode="&#x2018;" horiz-adv-x="330" d="M50 850v75q0 46 17.5 87t48.5 72t71.5 48.5t87.5 17.5l10 -10v-80l-10 -10q-45 0 -79.5 -28.5t-42.5 -71.5q41 -1 69 -30t28 -70q0 -42 -29 -71t-71 -29t-71 29t-29 71z" />
<glyph unicode="&#x2019;" horiz-adv-x="330" d="M45 760v80l10 10q45 0 79.5 28.5t42.5 71.5q-41 1 -69 30t-28 70q0 42 29 71t71 29t71 -29t29 -71v-75q0 -47 -17.5 -87.5t-48.5 -71.5t-72 -48.5t-87 -17.5z" />
<glyph unicode="&#x201a;" d="M-767 1040v10q53 45 114 68.5t136 23.5q41 0 74.5 -7t75.5 -27v82l10 10h80l10 -10v-150l-45 -69h-9q-39 29 -90 50t-106 21t-106 -19.5t-90 -51.5h-9z" />
<glyph unicode="&#xf702;" d="M-767 1040v10q53 45 114 68.5t136 23.5q41 0 74.5 -7t75.5 -27v82l10 10h80l10 -10v-150l-45 -69h-9q-39 29 -90 50t-106 21t-106 -19.5t-90 -51.5h-9z" />
<glyph unicode="&#x201e;" d="M-767 1040v10q53 45 114 68.5t136 23.5q20 0 40 -5v53l10 10h60l10 -10v-71q13 -5 25.5 -9.5t24.5 -9.5v90l10 10h60l10 -10v-150l-45 -69h-9q-39 29 -90 50t-106 21t-106 -19.5t-90 -51.5h-9z" />
<glyph unicode="&#xf704;" d="M-767 1040v10q53 45 114 68.5t136 23.5q20 0 40 -5v53l10 10h60l10 -10v-71q13 -5 25.5 -9.5t24.5 -9.5v90l10 10h60l10 -10v-150l-45 -69h-9q-39 29 -90 50t-106 21t-106 -19.5t-90 -51.5h-9z" />
<glyph unicode="&#x2020;" d="M-400 990v200l10 10h80l10 -10v-200l-10 -10h-80z" />
<glyph unicode="&#xf705;" d="M-400 990v200l10 10h80l10 -10v-200l-10 -10h-80z" />
<glyph unicode="&#x2021;" d="M-650 1107v83q11 5 27 7.5t23 2.5q42 0 66 -29t24 -71q0 -10 10 -10h200l11 -11v-68l-11 -11h-200q-42 0 -71 29t-29 71q0 8 -6 10.5t-14 2.5q-5 0 -11.5 -1.5t-13.5 -5.5z" />
<glyph unicode="&#xf706;" d="M-650 1107v83q11 5 27 7.5t23 2.5q42 0 66 -29t24 -71q0 -10 10 -10h200l11 -11v-68l-11 -11h-200q-42 0 -71 29t-29 71q0 8 -6 10.5t-14 2.5q-5 0 -11.5 -1.5t-13.5 -5.5z" />
<glyph unicode="&#x2022;" horiz-adv-x="500" d="M100 450q0 31 12 58.5t32 47.5t47.5 32t58.5 12t58.5 -12t47.5 -32t32 -47.5t12 -58.5t-12 -58.5t-32 -47.5t-47.5 -32t-58.5 -12t-58.5 12t-47.5 32t-32 47.5t-12 58.5z" />
<glyph unicode="&#x2026;" horiz-adv-x="900" d="M100 50q0 21 14.5 35.5t35.5 14.5t35.5 -14.5t14.5 -35.5t-14.5 -35.5t-35.5 -14.5t-35.5 14.5t-14.5 35.5zM400 50q0 21 14.5 35.5t35.5 14.5t35.5 -14.5t14.5 -35.5t-14.5 -35.5t-35.5 -14.5t-35.5 14.5t-14.5 35.5zM700 50q0 21 14.5 35.5t35.5 14.5t35.5 -14.5 t14.5 -35.5t-14.5 -35.5t-35.5 -14.5t-35.5 14.5t-14.5 35.5z" />
<glyph unicode="&#x202f;" horiz-adv-x="294" />
<glyph unicode="&#x2030;" d="M-510 1055v70l10 10h55v55l10 10h70l10 -10v-55h55l10 -10v-70l-10 -10h-55v-55l-10 -10h-70l-10 10v55h-55z" />
<glyph unicode="&#xf708;" d="M-510 1055v70l10 10h55v55l10 10h70l10 -10v-55h55l10 -10v-70l-10 -10h-55v-55l-10 -10h-70l-10 10v55h-55z" />
<glyph unicode="&#x2039;" d="M-200 990v200l10 10h80l10 -10v-200l-10 -10h-80z" />
<glyph unicode="&#xf70a;" d="M-200 990v200l10 10h80l10 -10v-200l-10 -10h-80z" />
<glyph unicode="&#x203a;" d="M-367 1260v200l10 10h80l10 -10v-200l-10 -10h-80z" />
<glyph unicode="&#xf713;" d="M-367 1260v200l10 10h80l10 -10v-200l-10 -10h-80z" />
<glyph unicode="&#x205f;" horiz-adv-x="367" />
<glyph unicode="&#x20ac;" horiz-adv-x="700" d="M27 706q18 39 46 71t63 55t77 35.5t87 12.5q116 0 204 5t156 34l20 -94q-12 -9 -30.5 -16.5t-41 -12.5t-48 -8t-50.5 -3q42 -43 66 -92t24 -113v-380q0 -41 -16 -77.5t-43 -63.5t-63.5 -43t-77.5 -16t-77.5 16t-63.5 43t-43 63.5t-16 77.5v100q0 21 -14.5 35.5 t-35.5 14.5q-8 0 -16 -1.5t-15 -4.5h-10v97q6 3 15 6t26 3q35 0 63 -12t47.5 -32t29.5 -47.5t10 -58.5v-100q0 -42 29 -71t71 -29t71 29t29 71v380q0 42 -15.5 78.5t-42.5 63.5t-63.5 42.5t-78.5 15.5q-59 0 -106.5 -30t-72.5 -78l-7 -3z" />
<glyph unicode="&#xf700;" horiz-adv-x="700" d="M27 706q18 39 46 71t63 55t77 35.5t87 12.5q116 0 204 5t156 34l20 -94q-12 -9 -30.5 -16.5t-41 -12.5t-48 -8t-50.5 -3q42 -43 66 -92t24 -113v-380q0 -41 -16 -77.5t-43 -63.5t-63.5 -43t-77.5 -16t-77.5 16t-63.5 43t-43 63.5t-16 77.5v100q0 21 -14.5 35.5 t-35.5 14.5q-8 0 -16 -1.5t-15 -4.5h-10v97q6 3 15 6t26 3q35 0 63 -12t47.5 -32t29.5 -47.5t10 -58.5v-100q0 -42 29 -71t71 -29t71 29t29 71v380q0 42 -15.5 78.5t-42.5 63.5t-63.5 42.5t-78.5 15.5q-59 0 -106.5 -30t-72.5 -78l-7 -3z" />
<glyph unicode="&#x2122;" d="M-520 1090q0 23 8.5 43t23.5 35t35 23.5t43 8.5t43 -8.5t35 -23.5t23.5 -35t8.5 -43t-8.5 -43t-23.5 -35t-35 -23.5t-43 -8.5t-43 8.5t-35 23.5t-23.5 35t-8.5 43zM-450 1090q0 -17 11.5 -28.5t28.5 -11.5t28.5 11.5t11.5 28.5t-11.5 28.5t-28.5 11.5t-28.5 -11.5 t-11.5 -28.5z" />
<glyph unicode="&#xf711;" d="M-520 1090q0 23 8.5 43t23.5 35t35 23.5t43 8.5t43 -8.5t35 -23.5t23.5 -35t8.5 -43t-8.5 -43t-23.5 -35t-35 -23.5t-43 -8.5t-43 8.5t-35 23.5t-23.5 35t-8.5 43zM-450 1090q0 -17 11.5 -28.5t28.5 -11.5t28.5 11.5t11.5 28.5t-11.5 28.5t-28.5 11.5t-28.5 -11.5 t-11.5 -28.5z" />
<glyph unicode="&#x25cc;" horiz-adv-x="1049" d="M50 400q0 21 14.5 35.5t35.5 14.5t35.5 -14.5t14.5 -35.5t-14.5 -35.5t-35.5 -14.5t-35.5 14.5t-14.5 35.5zM150 200q0 21 14.5 35.5t35.5 14.5t35.5 -14.5t14.5 -35.5t-14.5 -35.5t-35.5 -14.5t-35.5 14.5t-14.5 35.5zM150 600q0 21 14.5 35.5t35.5 14.5t35.5 -14.5 t14.5 -35.5t-14.5 -35.5t-35.5 -14.5t-35.5 14.5t-14.5 35.5zM400 50q0 21 14.5 35.5t35.5 14.5t35.5 -14.5t14.5 -35.5t-14.5 -35.5t-35.5 -14.5t-35.5 14.5t-14.5 35.5zM400 750q0 21 14.5 35.5t35.5 14.5t35.5 -14.5t14.5 -35.5t-14.5 -35.5t-35.5 -14.5t-35.5 14.5 t-14.5 35.5zM650 200q0 21 14.5 35.5t35.5 14.5t35.5 -14.5t14.5 -35.5t-14.5 -35.5t-35.5 -14.5t-35.5 14.5t-14.5 35.5zM650 600q0 21 14.5 35.5t35.5 14.5t35.5 -14.5t14.5 -35.5t-14.5 -35.5t-35.5 -14.5t-35.5 14.5t-14.5 35.5zM750 400q0 21 14.5 35.5t35.5 14.5 t35.5 -14.5t14.5 -35.5t-14.5 -35.5t-35.5 -14.5t-35.5 14.5t-14.5 35.5z" />
<glyph unicode="&#x25fc;" horiz-adv-x="880" d="M0 0v880h880v-880h-880z" />
<glyph unicode="&#xf701;" d="M-767 1040v10q53 45 114 68.5t136 23.5t136 -23.5t114 -68.5v-10l-45 -69h-9q-39 32 -90 51.5t-106 19.5t-106 -19.5t-90 -51.5h-9z" />
<glyph unicode="&#xf70c;" d="M-520 1025q0 26 10 48.5t27 39.5t39.5 27t48.5 10q25 0 49 -12t36 -28q13 16 36.5 28t48.5 12q22 0 45 -15v65l10 10h60l10 -10v-200l-10 -10h-60l-10 10v25q0 19 -13 32t-32 13q-18 0 -30.5 -12.5t-14.5 -32.5l-10 -10h-60l-10 10q0 19 -13 32t-32 13t-32 -13t-13 -32 q0 -16 12 -30l-61 -46l-6 1q-25 31 -25 75z" />
<glyph unicode="&#xf70e;" d="M-400 1025q0 26 10 48.5t27 39.5t39.5 27t48.5 10h215l10 -10v-70l-10 -10h-215q-14 0 -24.5 -10.5t-10.5 -24.5q0 -6 2 -10l-2 -6l-84 -18q-6 18 -6 34z" />
<glyph unicode="&#xf70f;" horiz-adv-x="1240" d="M70 674q36 95 120.5 150.5t209.5 55.5q62 0 117 -23.5t95.5 -64t64 -95.5t23.5 -117v-280q0 -42 11.5 -78.5t34 -63.5t55 -42.5t74.5 -15.5t74.5 15.5t55 42.5t34 63.5t11.5 78.5v570l10 10h80l10 -10v-570q0 -62 -19.5 -117t-55.5 -95.5t-87 -64t-113 -23.5t-113 23.5 t-87 64t-55.5 95.5t-19.5 117v280q0 42 -15.5 78.5t-42.5 63.5t-63.5 42.5t-78.5 15.5q-83 0 -134.5 -24.5t-85.5 -81.5q7 -19 11.5 -41t6 -45t2 -46t0.5 -42v-350q0 -21 14.5 -35.5t35.5 -14.5q17 0 31.5 1.5t26.5 6.5h10v-97q-14 -5 -31 -8t-37 -3q-31 0 -58.5 12 t-47.5 32t-32 47.5t-12 58.5v350q0 99 -30 174z" />
<glyph unicode="&#xf715;" d="M-670 1285q0 26 10 48.5t27 39.5t39.5 27t48.5 10q25 0 49 -12t36 -28q13 16 36.5 28t48.5 12q22 0 45 -15v65l10 10h60l10 -10v-200l-10 -10h-60l-10 10v25q0 19 -13 32t-32 13q-18 0 -30.5 -12.5t-14.5 -32.5l-10 -10h-60l-10 10q0 19 -13 32t-32 13t-32 -13t-13 -32 q0 -16 12 -30l-61 -46l-6 1q-25 31 -25 75z" />
<glyph unicode="&#xf718;" d="M-353 -400q14 5 31 8t37 3q26 0 48.5 -10t39.5 -27t27 -39.5t10 -48.5v-165l-10 -10h-80l-10 10v165q0 11 -7 18t-18 7q-17 0 -31.5 -1.5t-26.5 -6.5h-10v97z" />
<glyph unicode="&#xf719;" d="M-459 -401q5 2 11.5 3t12.5 1q54 0 79.5 -31t25.5 -94v-74q0 -8 5.5 -14t13.5 -6h51q8 0 14 6t6 14v189l10 10h60l10 -10v-189q0 -21 -8 -39.5t-21.5 -32t-31.5 -21t-39 -7.5h-51q-21 0 -39 8t-31.5 21.5t-21 32t-7.5 39.5v73q0 11 -7 18t-18 7l-14 -1h-10v97z" />
<glyph unicode="&#xf71a;" d="M-200 -450q0 21 14.5 35.5t35.5 14.5t35.5 -14.5t14.5 -35.5t-14.5 -35.5t-35.5 -14.5t-35.5 14.5t-14.5 35.5z" />
<glyph horiz-adv-x="910" d="M43 779v97q10 4 17 4q31 0 58.5 -10t47.5 -27t32 -41t12 -52v-550q0 -42 29 -71t71 -29q20 0 38 7.5t31.5 21t21.5 32t9 39.5v494l6 6h88l6 -6v-494q0 -42 29 -71t71 -29t71 29t29 71v190q0 30 -8 57t-24.5 47t-41 32.5t-56.5 13.5v94l6 6q30 1 53 13t39 32.5t24 47.5 t8 57q0 7 -1.5 19t-3.5 26.5t-5.5 29t-6.5 25.5l10 10l88 10q4 -11 7.5 -26t6 -31.5t4 -33t1.5 -29.5q0 -62 -27.5 -114t-72.5 -86q45 -35 72.5 -87t27.5 -113v-190q0 -41 -16 -77.5t-43 -63.5t-63.5 -43t-77.5 -16q-45 0 -86.5 24.5t-63.5 65.5q-22 -41 -63.5 -65.5 t-86.5 -24.5q-41 0 -77.5 16t-63.5 43t-43 63.5t-16 77.5v530q0 21 -14.5 35.5t-35.5 14.5l-7 -1h-10z" />
<glyph horiz-adv-x="650" d="M-520 1090q0 23 8.5 43t23.5 35t35 23.5t43 8.5t43 -8.5t35 -23.5t23.5 -35t8.5 -43t-8.5 -43t-23.5 -35t-35 -23.5t-43 -8.5t-43 8.5t-35 23.5t-23.5 35t-8.5 43zM-450 1090q0 -17 11.5 -28.5t28.5 -11.5t28.5 11.5t11.5 28.5t-11.5 28.5t-28.5 11.5t-28.5 -11.5 t-11.5 -28.5zM25 779q42 47 100 74t125 27q62 0 117 -23.5t95.5 -64t64 -95.5t23.5 -117v-570l-10 -10h-80l-10 10v570q0 42 -15.5 78.5t-42.5 63.5t-63.5 42.5t-78.5 15.5q-45 0 -83.5 -18t-66.5 -50h-10z" />
<glyph d="M-500 1150q0 52 31.5 91.5t79.5 52.5q-11 22 -11 46q0 42 29 71t71 29h150v-60h-150q-17 0 -28.5 -11.5t-11.5 -28.5t11.5 -28.5t28.5 -11.5v-60h-4h-46q-38 0 -64 -26t-26 -64t26 -64t64 -26t64 26t26 64h60q0 -31 -12 -58.5t-32 -47.5t-47.5 -32t-58.5 -12t-58.5 12 t-47.5 32t-32 47.5t-12 58.5z" />
<glyph horiz-adv-x="1240" d="M70 674q36 95 120.5 150.5t209.5 55.5q62 0 117 -23.5t95.5 -64t64 -95.5t23.5 -117v-280q0 -42 11.5 -78.5t34 -63.5t55 -42.5t74.5 -15.5q40 0 72 15t54 40.5t34.5 60.5t14.5 75v579l10 10h80l10 -10v-820q0 -62 -19.5 -117t-55.5 -95.5t-87 -64t-113 -23.5 q-52 0 -100 17v102l8 3q41 -22 92 -22q42 0 74.5 15.5t55 42.5t34 63.5t11.5 78.5v51q-35 -50 -76 -75.5t-99 -25.5q-62 0 -113 23.5t-87 64t-55.5 95.5t-19.5 117v280q0 42 -15.5 78.5t-42.5 63.5t-63.5 42.5t-78.5 15.5q-83 0 -134.5 -24.5t-85.5 -81.5q7 -19 11.5 -41 t6 -45t2 -46t0.5 -42v-350q0 -21 14.5 -35.5t35.5 -14.5q17 0 31.5 1.5t26.5 6.5h10v-97q-14 -5 -31 -8t-37 -3q-31 0 -58.5 12t-47.5 32t-32 47.5t-12 58.5v350q0 99 -30 174z" />
</font>
</defs>
</svg>
